[ Сегодня идет свободное скачивание без начисления Download ]


Статистика раздачи
Нет
 
   
 
Top  
 
 
Все ради нее / Pour elle Русское название: Все ради нее
Оригинальное название: Pour elle
Год выпуска: 2008
Жанр: триллер, драма, криминал
Выпущено: Франция, Испания
Режиссер: Фред Кавайе
В ролях: Венсан Линдон , Дайан Крюгер , Лансело Рок , Оливье Маршаль , Хамму Грайа , Лилиан Ровер , Оливье Перье , Мусса Мааскри , Реми Мартен , Тьерри Годар , Слиман Хаджар , Доротея Тавернье
Перевод: Профессиональный многоголосый [Лицензия, R5]

Сюжет фильма:
Лиза, Жюльен и их маленький сын Оскар - счастливая семья. Но однажды утром полиция приезжает за Лизой. Её обвиняют в преднамеренном убийстве. Все улики свидетельствуют против неё. И теперь Жюльен, обычный учитель французского, готов сделать всё, чтобы спасти жену. Даже если ему придётся переступить границы закона.

Качество: BDRip 720p
Формат: AVC (библиотека кодирования x.264)
Контейнер (Расширение): MKV
Видео: 1280x546, 7007 Кбит/сек, 23,976 кадр/сек, 0,418 Бит/[Пиксели*Кадры]
Аудио №1: русский / AC3 / 5.1 / 48 kHz / 640 kbps / |Профессиональный многоголосый [Лицензия, R5]|
Аудио №2: французский / AC3 / 5.1 / 48 kHz / 640 kbps /
Субтитры: русские (Forced), русские, английские
Навигация по главам(Чаптеры): есть
Продолжительность: 01:36:33

MediaInfo

Format : Matroska
Format version : Version 2
File size : 5.70 GiB
Duration : 1h 36mn
Overall bit rate : 8 456 Kbps
Movie name : Vse radi nee.(2008).BDRip.720p.[denis100]
Encoded date : UTC 2016-05-30 06:46:09
Writing application : mkvmerge v5.8.0 ('No Sleep / Pillow') built on Sep 2 2012 15:37:04
Writing library : libebml v1.2.3 + libmatroska v1.3.0
Video
ID : 1
Format : AVC
Format/Info : Advanced Video Codec
Format profile : High@L4.1
Format settings, CABAC : Yes
Format settings, ReFrames : 11 frames
Codec ID : V_MPEG4/ISO/AVC
Duration : 1h 36mn
Bit rate : 7 008 Kbps
Width : 1 280 pixels
Height : 546 pixels
Display aspect ratio : 2.35:1
Frame rate : 23.976 fps
Color space : YUV
Chroma subsampling : 4:2:0
Bit depth : 8 bits
Scan type : Progressive
Bits/(Pixel*Frame) : 0.418
Stream size : 4.73 GiB (83%)
Title : Vse radi nee.(2008).BDRip.720p.[denis100]
Writing library : x264 core 148 r2692 64f4e24
Encoding settings : cabac=1 / ref=11 / deblock=1:-3:-3 / analyse=0x3:0x133 / me=umh / subme=11 / psy=1 / psy_rd=1.00:0.11 / mixed_ref=1 / me_range=32 / chroma_me=1 / trellis=2 / 8x8dct=1 / cqm=0 / deadzone=21,11 / fast_pskip=0 / chroma_qp_offset=-3 / threads=6 / lookahead_threads=1 / sliced_threads=0 / nr=0 / decimate=1 / interlaced=0 / bluray_compat=0 / constrained_intra=0 / bframes=10 / b_pyramid=2 / b_adapt=2 / b_bias=0 / direct=3 / weightb=1 / open_gop=0 / weightp=2 / keyint=240 / keyint_min=23 / scenecut=40 / intra_refresh=0 / rc=crf / mbtree=0 / crf=16.8 / qcomp=0.60 / qpmin=0 / qpmax=69 / qpstep=4 / ip_ratio=1.40 / pb_ratio=1.30 / aq=2:0.80
Language : English
Default : Yes
Forced : No
Audio #1
ID : 2
Format : AC-3
Format/Info : Audio Coding 3
Mode extension : CM (complete main)
Codec ID : A_AC3
Duration : 1h 36mn
Bit rate mode : Constant
Bit rate : 640 Kbps
Channel(s) : 6 channels
Channel positions : Front: L C R, Side: L R, LFE
Sampling rate : 48.0 KHz
Bit depth : 16 bits
Compression mode : Lossy
Stream size : 442 MiB (8%)
Title : MVO, R5
Language : Russian
Default : Yes
Forced : No
Audio #2
ID : 3
Format : AC-3
Format/Info : Audio Coding 3
Mode extension : CM (complete main)
Codec ID : A_AC3
Duration : 1h 36mn
Bit rate mode : Constant
Bit rate : 640 Kbps
Channel(s) : 6 channels
Channel positions : Front: L C R, Side: L R, LFE
Sampling rate : 48.0 KHz
Bit depth : 16 bits
Compression mode : Lossy
Stream size : 442 MiB (8%)
Language : French
Default : No
Forced : No
Text #1
ID : 4
Format : UTF-8
Codec ID : S_TEXT/UTF8
Codec ID/Info : UTF-8 Plain Text
Title : Forced
Language : Russian
Default : Yes
Forced : No
Text #2
ID : 5
Format : UTF-8
Codec ID : S_TEXT/UTF8
Codec ID/Info : UTF-8 Plain Text
Language : Russian
Default : No
Forced : No
Text #3
ID : 6
Format : UTF-8
Codec ID : S_TEXT/UTF8
Codec ID/Info : UTF-8 Plain Text
Language : English
Default : No
Forced : No
Menu
00:00:00.000 : en:00:00:00.000
00:06:56.582 : en:00:06:56.582
00:15:49.031 : en:00:15:49.031
00:21:36.712 : en:00:21:36.712
00:25:33.114 : en:00:25:33.114
00:38:48.492 : en:00:38:48.492
00:46:52.643 : en:00:46:52.643
00:52:56.423 : en:00:52:56.423
01:02:11.310 : en:01:02:11.310
01:10:50.120 : en:01:10:50.120
01:21:12.617 : en:01:21:12.617
01:32:23.287 : en:01:32:23.287

x264

x264 [info]: frame I:961 Avg QP:15.15 size:114056
x264 [info]: frame P:27768 Avg QP:16.48 size: 58110
x264 [info]: frame B:110172 Avg QP:18.63 size: 31513

Скриншоты

[Цитировать]



Показать сообщения:    

Текущее время: 10-Дек 06:05

Часовой пояс: UTC + 3


Вы не можете начинать темы
Вы не можете отвечать на сообщения
Вы не можете редактировать свои сообщения
Вы не можете удалять свои сообщения
Вы не можете голосовать в опросах
Вы не можете прикреплять файлы к сообщениям
Вы не можете скачивать файлы

!ВНИМАНИЕ!
Сайт не предоставляет электронные версии произведений, а занимается лишь коллекционированием и каталогизацией ссылок, присылаемых и публикуемых на форуме нашими читателями. Если вы являетесь правообладателем какого-либо представленного материала и не желаете, чтобы ссылка на него находилась в нашем каталоге, свяжитесь с нами, и мы незамедлительно удалим ее. Файлы для обмена на трекере предоставлены пользователями сайта, и администрация не несет ответственности за их содержание. Просьба не заливать файлы, защищенные авторскими правами, а также файлы нелегального содержания!