[ Сегодня идет свободное скачивание без начисления Download ]


Статистика раздачи
Скачал: [ 1 ]
 
   
 
Top  
 
 
- Все по новой / The Do-Over (2016) WEB-DL [H.264/1080p-LQ]- Производство: США | Happy Madison Productions
Жанр: Комедия
Режиссер: Стивен Брилл
Актеры: Адам Сэндлер, Пола Пэттон, Кэтрин Хан, Шон Эстин, Дэвид Спейд,
Луис Гусман, Джаред Сэндлер, Ник Свардсон, Рене Тейлор, Мэтт Уолш
Описание:
Два неудачника решают имитировать свою смерть, чтобы начать жизнь с чистого листа. Однако их новая жизнь оказывается далеко не лучше прежней.

Дата мировой премьеры: 27 мая 2016
Продолжительность: 01:47:15
Качество видео: WEB-DL Сэмпл
Перевод: Любительский многоголосый
Субтитры: Отсутствуют
Реклама: Присутствуют вставки голосовой и текстовой рекламы.
Видео: AVC, 1920x1036 (1.853), 23.976 fps, 5 408 Kbps (0.113 bit/pixel)
Аудио: AC-3, 48.0 KHz, 2 ch, 384 Kbps, CBR (Russian)
Аудио: AC-3, 48.0 KHz, 6 ch, 384 Kbps, CBR (English)

Mediainfo:

Формат                                   : Matroska
Версия формата                           : Version 2
Размер файла                             : 4,74 Гбайт
Продолжительность                        : 1 ч. 47 м.
Режим общего битрейта                    : Постоянный
Общий поток                              : 6301 Кбит/сек
Дата кодирования                         : UTC 2016-05-30 18:56:15
Программа кодирования                    : mkvmerge v8.3.0 ('Over the Horizon') 64bit
Библиотека кодирования                   : libebml v1.3.1 + libmatroska v1.4.2
DURATION                                 : 01:47:39.245000000
NUMBER_OF_FRAMES                         : 154867
NUMBER_OF_BYTES                          : 4465857848
_STATISTICS_WRITING_APP                  : mkvmerge v8.3.0 ('Over the Horizon') 64bit
_STATISTICS_WRITING_DATE_UTC             : 2016-05-30 18:56:15
_STATISTICS_TAGS                         : BPS DURATION NUMBER_OF_FRAMES NUMBER_OF_BYTES
Видео
Идентификатор                            : 1
Формат                                   : AVC
Формат/Информация                        : Advanced Video Codec
Профиль формата                          : High@L4
Параметр CABAC формата                   : Да
Параметр ReFrames формата                : 4 кадра
Идентификатор кодека                     : V_MPEG4/ISO/AVC
Продолжительность                        : 1 ч. 47 м.
Вид битрейта                             : Постоянный
Битрейт                                  : 5408 Кбит/сек
Номинальный битрейт                      : 6000 Кбит/сек
Ширина                                   : 1920 пикселей
Высота                                   : 1036 пикселей
Соотношение сторон                       : 1,85:1
Режим частоты кадров                     : Постоянный
Частота кадров                           : 23,976 кадра/сек
Стандарт вещания                         : Component
Цветовое пространство                    : YUV
Субдискретизация насыщенности            : 4:2:0
Битовая глубина                          : 8 бит
Тип развёртки                            : Прогрессивная
Бит/(Пиксели*Кадры)                      : 0.113
Размер потока                            : 4,07 Гбайт (86%)
Default                                  : Да
Forced                                   : Нет
Цветовой диапазон                        : Limited
Основные цвета                           : BT.709
Характеристики трансфера                 : BT.709
Коэффициенты матрицы                     : BT.709
Аудио #1
Идентификатор                            : 2
Формат                                   : AC-3
Формат/Информация                        : Audio Coding 3
Расширение режима                        : CM (complete main)
Параметр Endianness формата              : Big
Идентификатор кодека                     : A_AC3
Продолжительность                        : 1 ч. 47 м.
Вид битрейта                             : Постоянный
Битрейт                                  : 384 Кбит/сек
Каналы                                   : 2 канала
Расположение каналов                     : Front: L R
Частота                                  : 48,0 КГц
Битовая глубина                          : 16 бит
Метод сжатия                             : С потерями
Размер потока                            : 296 Мбайт (6%)
Язык                                     : Russian
Default                                  : Да
Forced                                   : Да
Аудио #2
Идентификатор                            : 3
Формат                                   : AC-3
Формат/Информация                        : Audio Coding 3
Расширение режима                        : CM (complete main)
Параметр Endianness формата              : Big
Идентификатор кодека                     : A_AC3
Продолжительность                        : 1 ч. 47 м.
Вид битрейта                             : Постоянный
Битрейт                                  : 384 Кбит/сек
Каналы                                   : 6 каналов
Расположение каналов                     : Front: L C R, Side: L R, LFE
Частота                                  : 48,0 КГц
Битовая глубина                          : 16 бит
Метод сжатия                             : С потерями
Размер потока                            : 296 Мбайт (6%)
Язык                                     : English
Default                                  : Нет
Forced                                   : Нет
Скриншоты:

[Цитировать]



Показать сообщения:    

Текущее время: 11-Дек 05:20

Часовой пояс: UTC + 3


Вы не можете начинать темы
Вы не можете отвечать на сообщения
Вы не можете редактировать свои сообщения
Вы не можете удалять свои сообщения
Вы не можете голосовать в опросах
Вы не можете прикреплять файлы к сообщениям
Вы не можете скачивать файлы

!ВНИМАНИЕ!
Сайт не предоставляет электронные версии произведений, а занимается лишь коллекционированием и каталогизацией ссылок, присылаемых и публикуемых на форуме нашими читателями. Если вы являетесь правообладателем какого-либо представленного материала и не желаете, чтобы ссылка на него находилась в нашем каталоге, свяжитесь с нами, и мы незамедлительно удалим ее. Файлы для обмена на трекере предоставлены пользователями сайта, и администрация не несет ответственности за их содержание. Просьба не заливать файлы, защищенные авторскими правами, а также файлы нелегального содержания!