[ Сегодня идет свободное скачивание без начисления Download ]


Статистика раздачи
Скачал: [ 1 ]
 
   
 
Top  
 
 

Мумия / The Mummy

Мумия / The Mummy
«Death is only the beginning.»
?Год выпуска: 1999
?Страна: США
?Производство: Universal Pictures
?Жанр: Ужасы, боевик, триллер, фэнтези, комедия, приключения
?Режиссёр: Стивен Соммерс
?В ролях: Брендан Фрэйзер, Рэйчел Уайз, Джон Ханна, Арнолд Вослу, Кевин Джей О'Коннор, Джонатан Хайд, Одед Фехр, Эрик Авари, Кори Джонсон, Стивен Данэм, Так Уоткинс, Омид Джалили, Аарон Ипэйл, Бернард Фокс, Патрисия Веласкес
?Перевод: 3 x Многоголосый закадровый + Двухголосый закадровый + Авторский одноголосый + Оригинал + Комментарии
?Озвучка: СТС | FDV | "Премьер-Видео-Фильм" | А.Гаврилов
?Субтитры: Russian, English, French, Spanish, Portuguese, Danish, Finnish, Swedish, Dutch, Norwegian, German, Slovenian, Romanian
?Описание: На бескрайних просторах египетской пустыни компания сорвиголов разных национальностей рыщет в поисках несметных сокровищ фараона, над которыми тяготеет жуткое древнее проклятие. Рядом с кладом покоится мумия коварного жреца, жестоко казненного за ужасное убийство могущественного правителя Египта. Золотоискатели потревожили многовековой покой гробницы, и мумия встает из могилы, чтобы погрузить мир в царство кошмара...

?Качество: BDRip 1080p
?Продолжительность: 02:04:53
?Формат: MKV
?Главы: Есть
?Видео кодек: AVC
?Аудио кодек: AC3, DTS
?Видео: 1920x814 (2,35:1), 23,976 fps, x264@High Profile L4.1, ~12,3Mbps, 0.327 bit/ pixel
?Аудио №1: Russian:48 kHz, AC3 2.0 @ 448 Kbps - Многоголосый закадровый, Blu-Ray CEE
?Аудио №2: Russian:48 kHz, AC3 5.1 @ 448 Kbps - Многоголосый закадровый, "СТС"
?Аудио №3: Russian:48 KHz, DTS 5.1 @ 768 Kbps - Многоголосый закадровый, FDV
?Аудио №4: Russian:48 KHz, DTS 5.1 @ 768 Kbps - Двухголосый закадровый, "Премьер-Видео-Фильм"
?Аудио №5: Russian:48 KHz, DTS 5.1 @ 1510 Kbps - Одноголосый закадровый, А.Гаврилов
?Аудио №6: English:48 KHz, DTS 5.1 @ 1510 Kbps - Original
?Аудио №7: English:48 KHz, Vorbis 2.0 @ 96 Kbps - Commentary Director & Writer
?Аудио №8: English:48 KHz, Vorbis 2.0 @ 96 Kbps - Commentary Actor & Crew
?Аудио №9: English:48 KHz, Vorbis 2.0 @ 96 Kbps - Solo Commentary with Brendan Frasier

MediaInfo

The.Mummy.1999.1080p.BluRay.DTS.x264-FoRM.mkv
Формат : Matroska
Версия формата : Version 2
Размер файла : 15,7 Гбайт
Продолжительность : 2 ч. 4 м.
Режим общего битрейта : Переменный
Общий поток : 18,0 Мбит/сек
Название фильма : The Mummy (1999)
Дата кодирования : UTC 2011-10-21 05:39:58
Программа кодирования : mkvmerge v5.0.0 ('Die Wahre Liebe') built on Sep 25 2011 20:33:49
Библиотека кодирования : libebml v1.2.2 + libmatroska v1.3.0
Видео
Идентификатор : 1
Формат : AVC
Формат/Информация : Advanced Video Codec
Профиль формата : High@L4.1
Параметр CABAC формата : Да
Параметр ReFrames формата : 5 кадров
Идентификатор кодека : V_MPEG4/ISO/AVC
Продолжительность : 2 ч. 4 м.
Битрейт : 12,3 Мбит/сек
Ширина : 1920 пикселей
Высота : 814 пикселей
Соотношение сторон : 2,35:1
Частота кадров : 23,976 кадра/сек
Цветовое пространство : YUV
Субдискретизация насыщенности : 4:2:0
Битовая глубина : 8 бит
Тип развёртки : Прогрессивная
Бит/(Пиксели*Кадры) : 0.327
Размер потока : 10,4 Гбайт (66%)
Библиотека кодирования : x264 core 112 r1834 a51816a
Настройки программы : cabac=1 / ref=5 / deblock=1:-2:-2 / analyse=0x3:0x113 / me=umh / subme=10 / psy=1 / psy_rd=1.00:0.00 / mixed_ref=1 / me_range=64 / chroma_me=1 / trellis=2 / 8x8dct=1 / cqm=0 / deadzone=8,6 / fast_pskip=0 / chroma_qp_offset=-2 / threads=6 / sliced_threads=0 / nr=0 / decimate=0 / interlaced=0 / constrained_intra=0 / bframes=8 / b_pyramid=2 / b_adapt=2 / b_bias=0 / direct=1 / weightb=1 / open_gop=0 / weightp=2 / keyint=250 / keyint_min=23 / scenecut=40 / intra_refresh=0 / rc_lookahead=80 / rc=2pass / mbtree=1 / bitrate=12270 / ratetol=1.0 / qcomp=0.70 / qpmin=0 / qpmax=51 / qpstep=4 / cplxblur=20.0 / qblur=0.5 / vbv_maxrate=38000 / vbv_bufsize=30000 / ip_ratio=1.40 / aq=2:1.00 / nal_hrd=none
Язык : English
Аудио #1
Идентификатор : 2
Формат : AC-3
Формат/Информация : Audio Coding 3
Профиль формата : Dolby Digital
Расширение режима : CM (complete main)
Идентификатор кодека : A_AC3
Продолжительность : 2 ч. 4 м.
Вид битрейта : Постоянный
Битрейт : 448 Кбит/сек
Каналы : 2 канала
Расположение каналов : Front: L R
Частота : 48,0 КГц
Битовая глубина : 16 бит
Метод сжатия : С потерями
Размер потока : 400 Мбайт (2%)
Заголовок : AC3 2.0 @ 448 Kbps - Многоголосый закадровый, Blu-Ray CEE
Язык : Russian
Аудио #2
Идентификатор : 3
Формат : AC-3
Формат/Информация : Audio Coding 3
Расширение режима : CM (complete main)
Идентификатор кодека : A_AC3
Продолжительность : 2 ч. 4 м.
Вид битрейта : Постоянный
Битрейт : 448 Кбит/сек
Каналы : 6 каналов
Расположение каналов : Front: L C R, Side: L R, LFE
Частота : 48,0 КГц
Битовая глубина : 16 бит
Метод сжатия : С потерями
Размер потока : 400 Мбайт (2%)
Заголовок : AC3 5.1 @ 448 Kbps - Многоголосый закадровый, "СТС"
Язык : Russian
Аудио #3
Идентификатор : 4
Формат : DTS
Формат/Информация : Digital Theater Systems
Идентификатор кодека : A_DTS
Продолжительность : 2 ч. 4 м.
Вид битрейта : Постоянный
Битрейт : 755 Кбит/сек
Каналы : 6 каналов
Расположение каналов : Front: L C R, Side: L R, LFE
Частота : 48,0 КГц
Битовая глубина : 24 бит
Метод сжатия : С потерями
Размер потока : 674 Мбайт (4%)
Заголовок : DTS 5.1 @ 768 Kbps - Многоголосый закадровый, FDV
Язык : Russian
Аудио #4
Идентификатор : 5
Формат : DTS
Формат/Информация : Digital Theater Systems
Идентификатор кодека : A_DTS
Продолжительность : 2 ч. 4 м.
Вид битрейта : Постоянный
Битрейт : 755 Кбит/сек
Каналы : 6 каналов
Расположение каналов : Front: L C R, Side: L R, LFE
Частота : 48,0 КГц
Битовая глубина : 24 бит
Метод сжатия : С потерями
Размер потока : 674 Мбайт (4%)
Заголовок : DTS 5.1 @ 768 Kbps - Двухголосый закадровый, "Премьер-Видео-Фильм"
Язык : Russian
Аудио #5
Идентификатор : 6
Формат : DTS
Формат/Информация : Digital Theater Systems
Идентификатор кодека : A_DTS
Продолжительность : 2 ч. 4 м.
Вид битрейта : Постоянный
Битрейт : 1510 Кбит/сек
Каналы : 6 каналов
Расположение каналов : Front: L C R, Side: L R, LFE
Частота : 48,0 КГц
Битовая глубина : 24 бит
Метод сжатия : С потерями
Размер потока : 1,32 Гбайт (8%)
Заголовок : DTS 5.1 @ 1510 Kbps - Одноголосый закадровый, А.Гаврилов
Язык : Russian
Аудио #6
Идентификатор : 7
Формат : DTS
Формат/Информация : Digital Theater Systems
Идентификатор кодека : A_DTS
Продолжительность : 2 ч. 4 м.
Вид битрейта : Постоянный
Битрейт : 1510 Кбит/сек
Каналы : 6 каналов
Расположение каналов : Front: L C R, Side: L R, LFE
Частота : 48,0 КГц
Битовая глубина : 24 бит
Метод сжатия : С потерями
Размер потока : 1,32 Гбайт (8%)
Заголовок : DTS 5.1 @ 1510 Kbps - Original
Язык : English
Аудио #7
Идентификатор : 8
Формат : Vorbis
Параметр Floor формата : 1
Идентификатор кодека : A_VORBIS
Продолжительность : 2 ч. 4 м.
Вид битрейта : Переменный
Битрейт : 96,0 Кбит/сек
Каналы : 2 канала
Частота : 48,0 КГц
Метод сжатия : С потерями
Размер потока : 85,8 Мбайт (1%)
Заголовок : Vorbis 2.0 @ 96 Kbps - Commentary Director & Writer
Библиотека кодирования : aoTuV b5c (UTC 2008-12-15)
Язык : English
Аудио #8
Идентификатор : 9
Формат : Vorbis
Параметр Floor формата : 1
Идентификатор кодека : A_VORBIS
Продолжительность : 2 ч. 4 м.
Вид битрейта : Переменный
Битрейт : 96,0 Кбит/сек
Каналы : 2 канала
Частота : 48,0 КГц
Метод сжатия : С потерями
Размер потока : 85,8 Мбайт (1%)
Заголовок : Vorbis 2.0 @ 96 Kbps - Commentary Actor & Crew
Библиотека кодирования : aoTuV b5c (UTC 2008-12-15)
Язык : English
Аудио #9
Идентификатор : 10
Формат : Vorbis
Параметр Floor формата : 1
Идентификатор кодека : A_VORBIS
Продолжительность : 2 ч. 4 м.
Вид битрейта : Переменный
Битрейт : 96,0 Кбит/сек
Каналы : 2 канала
Частота : 48,0 КГц
Метод сжатия : С потерями
Размер потока : 85,8 Мбайт (1%)
Заголовок : Vorbis 2.0 @ 96 Kbps - Solo Commentary with Brendan Frasier
Библиотека кодирования : aoTuV b5c (UTC 2008-12-15)
Язык : English
Текст #1
Идентификатор : 11
Формат : UTF-8
Идентификатор кодека : S_TEXT/UTF8
Идентификатор кодека/Информация : UTF-8 Plain Text
Язык : Russian
Текст #2
Идентификатор : 12
Формат : UTF-8
Идентификатор кодека : S_TEXT/UTF8
Идентификатор кодека/Информация : UTF-8 Plain Text
Язык : English
Текст #3
Идентификатор : 13
Формат : UTF-8
Идентификатор кодека : S_TEXT/UTF8
Идентификатор кодека/Информация : UTF-8 Plain Text
Язык : French
Текст #4
Идентификатор : 14
Формат : UTF-8
Идентификатор кодека : S_TEXT/UTF8
Идентификатор кодека/Информация : UTF-8 Plain Text
Язык : Spanish
Текст #5
Идентификатор : 15
Формат : UTF-8
Идентификатор кодека : S_TEXT/UTF8
Идентификатор кодека/Информация : UTF-8 Plain Text
Язык : Portuguese
Текст #6
Идентификатор : 16
Формат : UTF-8
Идентификатор кодека : S_TEXT/UTF8
Идентификатор кодека/Информация : UTF-8 Plain Text
Язык : Danish
Текст #7
Идентификатор : 17
Формат : UTF-8
Идентификатор кодека : S_TEXT/UTF8
Идентификатор кодека/Информация : UTF-8 Plain Text
Язык : Finnish
Текст #8
Идентификатор : 18
Формат : UTF-8
Идентификатор кодека : S_TEXT/UTF8
Идентификатор кодека/Информация : UTF-8 Plain Text
Язык : Swedish
Текст #9
Идентификатор : 19
Формат : UTF-8
Идентификатор кодека : S_TEXT/UTF8
Идентификатор кодека/Информация : UTF-8 Plain Text
Язык : Dutch
Текст #10
Идентификатор : 20
Формат : UTF-8
Идентификатор кодека : S_TEXT/UTF8
Идентификатор кодека/Информация : UTF-8 Plain Text
Язык : Norwegian
Текст #11
Идентификатор : 21
Формат : UTF-8
Идентификатор кодека : S_TEXT/UTF8
Идентификатор кодека/Информация : UTF-8 Plain Text
Язык : German
Текст #12
Идентификатор : 22
Формат : UTF-8
Идентификатор кодека : S_TEXT/UTF8
Идентификатор кодека/Информация : UTF-8 Plain Text
Язык : Slovenian
Текст #13
Идентификатор : 23
Формат : UTF-8
Идентификатор кодека : S_TEXT/UTF8
Идентификатор кодека/Информация : UTF-8 Plain Text
Язык : Romanian
Меню
00:00:00.000 : en: The Living Death
00:07:10.597 : en: Sand and Blood
00:12:19.197 : en: The Key to Hamunaptra
00:23:19.690 : en: The Expedition
00:29:03.283 : en: The Magi Strike
00:36:46.204 : en: The City of the Dead
00:43:38.866 : en: Chambers of Death
00:49:06.569 : en: Leave or Die!
00:53:34.128 : en: The Black Book
00:57:29.613 : en: The Bringer of Death
01:11:13.311 : en: A Curse in Cairo
01:18:48.265 : en: The Regeneration
01:27:29.578 : en: Evelyn's Choice
01:30:03.940 : en: Back to Hamunaptra
01:36:32.829 : en: Against the Dead
01:43:58.899 : en: The Gold Book
01:49:44.828 : en: Death of a Mortal
01:56:52.088 : en: End Credits
[th]http://pics.kz/i3/35/65/3565837b65b5906121d2c547ddc5e4f5.png[/th] [th]http://pics.kz/i2/e0/2e/e02e52eeffe7baa2a47ee60b35701790.png[/th] [th]http://pics.kz/i2/a4/53/a453ec429e1125238816f5f8a84ca3f4.png[/th]

Мумия возвращается / The Mummy Returns

Мумия возвращается / The Mummy Returns
«Adventure Is Reborn»
?Год выпуска: 2001
?Страна: США
?Производство: Universal Pictures
?Жанр: Боевик, фэнтези, приключения
?Режиссёр: Стивен Соммерс
?В ролях: Брендан Фрэйзер, Рэйчел Вайс, Джон Ханна, Арнольд Вослу, Одед Фехр, Фредди Боут, Патрисия Веласкес, Алун Армстронг, Шон Паркc, Адевале Акиннуойе-Агбайе, Дуэйн Джонсон
?Перевод: 3 x Многоголосый закадровый + Дубляж + Авторский одноголосый + Оригинал + Комментарии
?Озвучка: Киномания | OPT | А.Гаврилов
?Субтитры: Forced, Russianx2, English, French, Spanish, Finnish, Swedish, Danish, Dutch, Norwegian, Slovenian, Romanian, Turkish
?Описание: Прошло десять лет. Рик и Эвелин наслаждаются счастливым браком, воспитывая своего девятилетнего сына Алекса. Тем временем ученые обнаруживают мумию Имхотепа и перевозят в Лондонской Музей. Остатки древнего зла все еще теплятся внутри саркофага, и Имхотеп вновь вырывается на волю. Однако тайные ритуалы египетских жрецов вызывают к жизни силу, куда более могущественную. В столкновении между ними на чаши весов ложится жизнь всего мира. Рик и Эвелин отчаянно пытаются противостоять злу и спасти своего сына, пока не стало слишком поздно...

?Качество: BDRip 1080p
?Продолжительность: 02:09:31
?Формат: MKV
?Главы: Есть
?Видео кодек: AVC
?Аудио кодек: AC3, DTS
?Видео: 1920x816 (2,35:1), 23,976 fps, ~12,2 Mbps, 0.325 bit/ pixel
?Аудио №1: Russian:48 kHz, AC3 5.1 @ 448 Kbps - Многоголосый закадровый, Blu-Ray CEE
?Аудио №2: Russian:48 KHz, AC3 5.1 @ 448 Kbps - Дубляж
?Аудио №3: Russian:48 KHz, AC3 5.1 @ 448 Kbps - Многоголосый закадровый, Киномания
?Аудио №4: Russian:48 KHz, DTS 5.1 @ 768 Kbps - Многоголосый закадровый, "OPT"
?Аудио №5: Russian:48 KHz, DTS 5.1 @ 1510 Kbps - Одноголосый закадровый, А.Гаврилов
?Аудио №6: English:48 KHz, DTS 5.1 @ 1510 Kbps - Original
?Аудио №7: English:48 KHz, Vorbis 2.0 @ 96 Kbps - Commentary Director & Writer

MediaInfo

The.Mummy.Returns.2001.1080p.BluRay.DTS.x264-FoRM.mkv
Формат : Matroska
Версия формата : Version 2
Размер файла : 15,8 Гбайт
Продолжительность : 2 ч. 9 м.
Режим общего битрейта : Переменный
Общий поток : 17,4 Мбит/сек
Название фильма : The Mummy Returns (2001)
Дата кодирования : UTC 2011-10-10 02:24:29
Программа кодирования : mkvmerge v5.0.0 ('Die Wahre Liebe') built on Sep 25 2011 20:33:49
Библиотека кодирования : libebml v1.2.2 + libmatroska v1.3.0
Видео
Идентификатор : 1
Формат : AVC
Формат/Информация : Advanced Video Codec
Профиль формата : High@L4.1
Параметр CABAC формата : Да
Параметр ReFrames формата : 5 кадров
Идентификатор кодека : V_MPEG4/ISO/AVC
Продолжительность : 2 ч. 9 м.
Битрейт : 12,2 Мбит/сек
Ширина : 1920 пикселей
Высота : 816 пикселей
Соотношение сторон : 2,35:1
Частота кадров : 23,976 кадра/сек
Цветовое пространство : YUV
Субдискретизация насыщенности : 4:2:0
Битовая глубина : 8 бит
Тип развёртки : Прогрессивная
Бит/(Пиксели*Кадры) : 0.325
Размер потока : 10,7 Гбайт (68%)
Библиотека кодирования : x264 core 112 r1834 a51816a
Настройки программы : cabac=1 / ref=5 / deblock=1:-2:-2 / analyse=0x3:0x113 / me=umh / subme=10 / psy=1 / psy_rd=1.00:0.00 / mixed_ref=1 / me_range=64 / chroma_me=1 / trellis=2 / 8x8dct=1 / cqm=0 / deadzone=8,6 / fast_pskip=0 / chroma_qp_offset=-2 / threads=6 / sliced_threads=0 / nr=0 / decimate=0 / interlaced=0 / constrained_intra=0 / bframes=9 / b_pyramid=2 / b_adapt=2 / b_bias=0 / direct=1 / weightb=1 / open_gop=0 / weightp=2 / keyint=250 / keyint_min=23 / scenecut=40 / intra_refresh=0 / rc_lookahead=80 / rc=2pass / mbtree=1 / bitrate=12216 / ratetol=1.0 / qcomp=0.70 / qpmin=0 / qpmax=51 / qpstep=4 / cplxblur=20.0 / qblur=0.5 / vbv_maxrate=38000 / vbv_bufsize=30000 / ip_ratio=1.40 / aq=2:0.95 / nal_hrd=none
Язык : English
Аудио #1
Идентификатор : 2
Формат : AC-3
Формат/Информация : Audio Coding 3
Расширение режима : CM (complete main)
Идентификатор кодека : A_AC3
Продолжительность : 2 ч. 9 м.
Вид битрейта : Постоянный
Битрейт : 448 Кбит/сек
Каналы : 6 каналов
Расположение каналов : Front: L C R, Side: L R, LFE
Частота : 48,0 КГц
Битовая глубина : 16 бит
Метод сжатия : С потерями
Размер потока : 415 Мбайт (3%)
Заголовок : AC3 5.1 @ 448 Kbps - Многоголосый закадровый, Blu-Ray CEE
Язык : Russian
Аудио #2
Идентификатор : 3
Формат : AC-3
Формат/Информация : Audio Coding 3
Расширение режима : CM (complete main)
Идентификатор кодека : A_AC3
Продолжительность : 2 ч. 9 м.
Вид битрейта : Постоянный
Битрейт : 448 Кбит/сек
Каналы : 6 каналов
Расположение каналов : Front: L C R, Side: L R, LFE
Частота : 48,0 КГц
Битовая глубина : 16 бит
Метод сжатия : С потерями
Размер потока : 415 Мбайт (3%)
Заголовок : AC3 5.1 @ 448 Kbps - Дубляж
Язык : Russian
Аудио #3
Идентификатор : 4
Формат : AC-3
Формат/Информация : Audio Coding 3
Расширение режима : CM (complete main)
Идентификатор кодека : A_AC3
Продолжительность : 2 ч. 9 м.
Вид битрейта : Постоянный
Битрейт : 448 Кбит/сек
Каналы : 6 каналов
Расположение каналов : Front: L C R, Side: L R, LFE
Частота : 48,0 КГц
Битовая глубина : 16 бит
Метод сжатия : С потерями
Размер потока : 415 Мбайт (3%)
Заголовок : AC3 5.1 @ 448 Kbps - Многоголосый закадровый, Киномания
Язык : Russian
Аудио #4
Идентификатор : 5
Формат : DTS
Формат/Информация : Digital Theater Systems
Идентификатор кодека : A_DTS
Продолжительность : 2 ч. 9 м.
Вид битрейта : Постоянный
Битрейт : 755 Кбит/сек
Каналы : 6 каналов
Расположение каналов : Front: L C R, Side: L R, LFE
Частота : 48,0 КГц
Битовая глубина : 24 бит
Метод сжатия : С потерями
Размер потока : 700 Мбайт (4%)
Заголовок : DTS 5.1 @ 768 Kbps - Многоголосый закадровый, "OPT"
Язык : Russian
Аудио #5
Идентификатор : 6
Формат : DTS
Формат/Информация : Digital Theater Systems
Идентификатор кодека : A_DTS
Продолжительность : 2 ч. 9 м.
Вид битрейта : Постоянный
Битрейт : 1510 Кбит/сек
Каналы : 6 каналов
Расположение каналов : Front: L C R, Side: L R, LFE
Частота : 48,0 КГц
Битовая глубина : 24 бит
Метод сжатия : С потерями
Размер потока : 1,37 Гбайт (9%)
Заголовок : DTS 5.1 @ 1510 Kbps - Одноголосый закадровый, А.Гаврилов
Язык : Russian
Аудио #6
Идентификатор : 7
Формат : DTS
Формат/Информация : Digital Theater Systems
Идентификатор кодека : A_DTS
Продолжительность : 2 ч. 9 м.
Вид битрейта : Постоянный
Битрейт : 1510 Кбит/сек
Каналы : 6 каналов
Расположение каналов : Front: L C R, Side: L R, LFE
Частота : 48,0 КГц
Битовая глубина : 24 бит
Метод сжатия : С потерями
Размер потока : 1,37 Гбайт (9%)
Заголовок : DTS 5.1 @ 1510 Kbps - Original
Язык : English
Аудио #7
Идентификатор : 8
Формат : Vorbis
Параметр Floor формата : 1
Идентификатор кодека : A_VORBIS
Продолжительность : 2 ч. 9 м.
Вид битрейта : Переменный
Битрейт : 96,0 Кбит/сек
Каналы : 2 канала
Частота : 48,0 КГц
Метод сжатия : С потерями
Размер потока : 89,0 Мбайт (1%)
Заголовок : Vorbis 2.0 @ 96 Kbps - Commentary Director & Writer
Библиотека кодирования : aoTuV b5c (UTC 2008-12-15)
Язык : English
Текст #1
Идентификатор : 9
Формат : UTF-8
Идентификатор кодека : S_TEXT/UTF8
Идентификатор кодека/Информация : UTF-8 Plain Text
Заголовок : Forced
Язык : Russian
Текст #2
Идентификатор : 10
Формат : UTF-8
Идентификатор кодека : S_TEXT/UTF8
Идентификатор кодека/Информация : UTF-8 Plain Text
Язык : Russian
Текст #3
Идентификатор : 11
Формат : UTF-8
Идентификатор кодека : S_TEXT/UTF8
Идентификатор кодека/Информация : UTF-8 Plain Text
Заголовок : R5
Язык : Russian
Текст #4
Идентификатор : 12
Формат : UTF-8
Идентификатор кодека : S_TEXT/UTF8
Идентификатор кодека/Информация : UTF-8 Plain Text
Язык : English
Текст #5
Идентификатор : 13
Формат : UTF-8
Идентификатор кодека : S_TEXT/UTF8
Идентификатор кодека/Информация : UTF-8 Plain Text
Язык : French
Текст #6
Идентификатор : 14
Формат : UTF-8
Идентификатор кодека : S_TEXT/UTF8
Идентификатор кодека/Информация : UTF-8 Plain Text
Язык : Spanish
Текст #7
Идентификатор : 15
Формат : UTF-8
Идентификатор кодека : S_TEXT/UTF8
Идентификатор кодека/Информация : UTF-8 Plain Text
Язык : Finnish
Текст #8
Идентификатор : 16
Формат : UTF-8
Идентификатор кодека : S_TEXT/UTF8
Идентификатор кодека/Информация : UTF-8 Plain Text
Язык : Swedish
Текст #9
Идентификатор : 17
Формат : UTF-8
Идентификатор кодека : S_TEXT/UTF8
Идентификатор кодека/Информация : UTF-8 Plain Text
Язык : Danish
Текст #10
Идентификатор : 18
Формат : UTF-8
Идентификатор кодека : S_TEXT/UTF8
Идентификатор кодека/Информация : UTF-8 Plain Text
Язык : Dutch
Текст #11
Идентификатор : 19
Формат : UTF-8
Идентификатор кодека : S_TEXT/UTF8
Идентификатор кодека/Информация : UTF-8 Plain Text
Язык : Norwegian
Текст #12
Идентификатор : 20
Формат : UTF-8
Идентификатор кодека : S_TEXT/UTF8
Идентификатор кодека/Информация : UTF-8 Plain Text
Язык : Slovenian
Текст #13
Идентификатор : 21
Формат : UTF-8
Идентификатор кодека : S_TEXT/UTF8
Идентификатор кодека/Информация : UTF-8 Plain Text
Язык : Romanian
Текст #14
Идентификатор : 22
Формат : UTF-8
Идентификатор кодека : S_TEXT/UTF8
Идентификатор кодека/Информация : UTF-8 Plain Text
Язык : Turkish
Меню
00:00:00.000 : en: Legend Of The Scorpion King
00:04:41.490 : en: The Family O'Connell
00:10:03.520 : en: Visions Of The Past
00:13:33.396 : en: The Bracelet Of Anubis
00:17:03.898 : en: The Unholy Treasure
00:23:20.774 : en: Alex's New Bracelet
00:26:17.159 : en: The Siege Of O'Connell Manor
00:35:25.248 : en: Resurrection
00:42:01.686 : en: The Soldier Mummies
00:46:51.726 : en: Kidnapped
00:56:03.151 : en: Izzy's Magic Carpet
01:06:37.410 : en: Visions Of Nefertiri
01:17:00.658 : en: The Wall Of Water
01:27:33.665 : en: The Pygmy Mummies
01:35:27.639 : en: A Death In The Family
01:42:44.075 : en: Face to Face
01:47:43.791 : en: The Scorpion King
01:51:20.841 : en: To Kill A Scorpion
01:53:26.383 : en: Return To The Underworld
02:01:49.177 : en: End Credits
[th]http://pics.kz/i3/80/02/80027d96bc523f4d578aaab7c2a9fa94.png[/th] [th]http://pics.kz/i2/77/85/7785deead232b1bf0984c3b719daa944.png[/th] [th]http://pics.kz/i1/bc/1e/bc1ef2ef49579bfec8b01c72bf2ea489.png[/th]

Мумия: Гробница Императора Драконов / The Mummy: Tomb of the Dragon Emperor

Мумия: Гробница Императора Драконов / The Mummy: Tomb of the Dragon Emperor
?Год выпуска: 2008
?Страна: США, Китай, Германия
?Производство: Universal Pictures
?Жанр: Приключения, мистика
?Режиссёр: Роб Коэн
?В ролях: Джет Ли, Брендан Фрейзер, Мария Белло, Джон Ханна, Мишель Йео, Люк Форд, Изабелла Люн, Энтони Вонг Чау-Санг, Расселл Вонг, Лайам Каннингэм
?Перевод: Профессиональный (полное дублирование) + Фвторский одноголосый + Оригинал + Комментарии
?Озвучка: Blu-Ray CEE | А.Гаврилов
?Субтитры: Forced, Russian, English, French, Spanish, Portuguese, Danish, Finnish, Swedish, Dutch, Czech, Romanian, Bulgarian, Turkish
?Описание: Заколдованный волшебницей, безжалостный китайский император-дракон должен провести вечность в забвении. Его 10 000 воинов превратились в терракотовых воинов. Однако когда искатель приключений Алекс О`Коннелл случайно пробуждает властителя от вечной спячки, он вынужден искать помощи у единственных людей, которые знают, как справиться с воскресшими мертвецами: у своих родителей. Монарх возвращается к жизни, и наши герои понимают, что его сила за эту тысячу лет только увеличилась. Мумия готова поднять всю Азию в борьбе за мировое господство... если О'Коннеллы ее не остановят.

?Качество: BDRip 1080p
?Продолжительность: 01:51:40
?Формат: MKV
?Главы: Есть
?Видео кодек: AVC
?Аудио кодек: AC3, DTS
?Видео: 1920x800 (2,40:1), 23,976 fps, ~12,5 Mbps, 0.340 bit/ pixel
?Аудио №1: Russian:48 KHz, AC3 5.1 @ 448 Kbps - Дубляж, Blu-Ray CEE
?Аудио №2: Russian:48 KHz, AC3 5.1 @ 448 Kbps - Одноголосый закадровый, А.Гаврилов
?Аудио №3: 48 KHz, DTS 5.1 @ 1510 Kbps - Original
?Аудио №4: 8 KHz, Vorbis 2.0 @ 96 Kbps - Commentary Director & Writer

MediaInfo

The.Mummy.Tomb.of.the.Dragon.Emperor.2008.1080p.BluRay.DTS.x264-FoRM.mkv
Формат : Matroska
Версия формата : Version 2
Размер файла : 11,7 Гбайт
Продолжительность : 1 ч. 51 м.
Режим общего битрейта : Переменный
Общий поток : 15,0 Мбит/сек
Название фильма : The Mummy: Tomb of the Dragon Emperor (2008)
Дата кодирования : UTC 2011-10-21 05:59:52
Программа кодирования : mkvmerge v5.0.0 ('Die Wahre Liebe') built on Sep 25 2011 20:33:49
Библиотека кодирования : libebml v1.2.2 + libmatroska v1.3.0
Attachment : Yes / Yes / Yes
Видео
Идентификатор : 1
Формат : AVC
Формат/Информация : Advanced Video Codec
Профиль формата : High@L4.1
Параметр CABAC формата : Да
Параметр ReFrames формата : 5 кадров
Идентификатор кодека : V_MPEG4/ISO/AVC
Продолжительность : 1 ч. 51 м.
Битрейт : 12,5 Мбит/сек
Ширина : 1920 пикселей
Высота : 800 пикселей
Соотношение сторон : 2,40:1
Частота кадров : 23,976 кадра/сек
Цветовое пространство : YUV
Субдискретизация насыщенности : 4:2:0
Битовая глубина : 8 бит
Тип развёртки : Прогрессивная
Бит/(Пиксели*Кадры) : 0.340
Размер потока : 9,51 Гбайт (81%)
Библиотека кодирования : x264 core 112 r1834 a51816a
Настройки программы : cabac=1 / ref=5 / deblock=1:-2:-2 / analyse=0x3:0x113 / me=umh / subme=10 / psy=1 / psy_rd=1.00:0.00 / mixed_ref=1 / me_range=64 / chroma_me=1 / trellis=2 / 8x8dct=1 / cqm=0 / deadzone=8,6 / fast_pskip=0 / chroma_qp_offset=-2 / threads=6 / sliced_threads=0 / nr=0 / decimate=0 / interlaced=0 / constrained_intra=0 / bframes=7 / b_pyramid=2 / b_adapt=2 / b_bias=0 / direct=1 / weightb=1 / open_gop=0 / weightp=2 / keyint=250 / keyint_min=23 / scenecut=40 / intra_refresh=0 / rc_lookahead=80 / rc=2pass / mbtree=1 / bitrate=12512 / ratetol=1.0 / qcomp=0.70 / qpmin=0 / qpmax=51 / qpstep=4 / cplxblur=20.0 / qblur=0.5 / vbv_maxrate=38000 / vbv_bufsize=30000 / ip_ratio=1.40 / aq=2:0.85 / nal_hrd=none
Язык : English
Аудио #1
Идентификатор : 2
Формат : AC-3
Формат/Информация : Audio Coding 3
Расширение режима : CM (complete main)
Идентификатор кодека : A_AC3
Продолжительность : 1 ч. 51 м.
Вид битрейта : Постоянный
Битрейт : 448 Кбит/сек
Каналы : 6 каналов
Расположение каналов : Front: L C R, Side: L R, LFE
Частота : 48,0 КГц
Битовая глубина : 16 бит
Метод сжатия : С потерями
Размер потока : 358 Мбайт (3%)
Заголовок : AC3 5.1 @ 448 Kbps - Дубляж, Blu-Ray CEE
Язык : Russian
Аудио #2
Идентификатор : 3
Формат : AC-3
Формат/Информация : Audio Coding 3
Расширение режима : CM (complete main)
Идентификатор кодека : A_AC3
Продолжительность : 1 ч. 51 м.
Вид битрейта : Постоянный
Битрейт : 448 Кбит/сек
Каналы : 6 каналов
Расположение каналов : Front: L C R, Side: L R, LFE
Частота : 48,0 КГц
Битовая глубина : 16 бит
Метод сжатия : С потерями
Размер потока : 358 Мбайт (3%)
Заголовок : AC3 5.1 @ 448 Kbps - Одноголосый закадровый, А.Гаврилов
Язык : Russian
Аудио #3
Идентификатор : 4
Формат : DTS
Формат/Информация : Digital Theater Systems
Идентификатор кодека : A_DTS
Продолжительность : 1 ч. 51 м.
Вид битрейта : Постоянный
Битрейт : 1510 Кбит/сек
Каналы : 6 каналов
Расположение каналов : Front: L C R, Side: L R, LFE
Частота : 48,0 КГц
Битовая глубина : 24 бит
Метод сжатия : С потерями
Размер потока : 1,18 Гбайт (10%)
Заголовок : DTS 5.1 @ 1510 Kbps - Original
Язык : English
Аудио #4
Идентификатор : 5
Формат : Vorbis
Параметр Floor формата : 1
Идентификатор кодека : A_VORBIS
Продолжительность : 1 ч. 51 м.
Вид битрейта : Переменный
Битрейт : 96,0 Кбит/сек
Каналы : 2 канала
Частота : 48,0 КГц
Метод сжатия : С потерями
Размер потока : 76,7 Мбайт (1%)
Заголовок : Vorbis 2.0 @ 96 Kbps - Commentary Director & Writer
Библиотека кодирования : aoTuV b5c (UTC 2008-12-15)
Язык : English
Текст #1
Идентификатор : 6
Формат : UTF-8
Идентификатор кодека : S_TEXT/UTF8
Идентификатор кодека/Информация : UTF-8 Plain Text
Заголовок : Forced
Язык : Russian
Текст #2
Идентификатор : 7
Формат : UTF-8
Идентификатор кодека : S_TEXT/UTF8
Идентификатор кодека/Информация : UTF-8 Plain Text
Язык : Russian
Текст #3
Идентификатор : 8
Формат : UTF-8
Идентификатор кодека : S_TEXT/UTF8
Идентификатор кодека/Информация : UTF-8 Plain Text
Язык : English
Текст #4
Идентификатор : 9
Формат : UTF-8
Идентификатор кодека : S_TEXT/UTF8
Идентификатор кодека/Информация : UTF-8 Plain Text
Язык : French
Текст #5
Идентификатор : 10
Формат : UTF-8
Идентификатор кодека : S_TEXT/UTF8
Идентификатор кодека/Информация : UTF-8 Plain Text
Язык : Spanish
Текст #6
Идентификатор : 11
Формат : UTF-8
Идентификатор кодека : S_TEXT/UTF8
Идентификатор кодека/Информация : UTF-8 Plain Text
Язык : Portuguese
Текст #7
Идентификатор : 12
Формат : UTF-8
Идентификатор кодека : S_TEXT/UTF8
Идентификатор кодека/Информация : UTF-8 Plain Text
Язык : Danish
Текст #8
Идентификатор : 13
Формат : UTF-8
Идентификатор кодека : S_TEXT/UTF8
Идентификатор кодека/Информация : UTF-8 Plain Text
Язык : Finnish
Текст #9
Идентификатор : 14
Формат : UTF-8
Идентификатор кодека : S_TEXT/UTF8
Идентификатор кодека/Информация : UTF-8 Plain Text
Язык : Swedish
Текст #10
Идентификатор : 15
Формат : UTF-8
Идентификатор кодека : S_TEXT/UTF8
Идентификатор кодека/Информация : UTF-8 Plain Text
Язык : Dutch
Текст #11
Идентификатор : 16
Формат : UTF-8
Идентификатор кодека : S_TEXT/UTF8
Идентификатор кодека/Информация : UTF-8 Plain Text
Язык : Czech
Текст #12
Идентификатор : 17
Формат : UTF-8
Идентификатор кодека : S_TEXT/UTF8
Идентификатор кодека/Информация : UTF-8 Plain Text
Язык : Romanian
Текст #13
Идентификатор : 18
Формат : UTF-8
Идентификатор кодека : S_TEXT/UTF8
Идентификатор кодека/Информация : UTF-8 Plain Text
Язык : Bulgarian
Текст #14
Идентификатор : 19
Формат : UTF-8
Идентификатор кодека : S_TEXT/UTF8
Идентификатор кодека/Информация : UTF-8 Plain Text
Язык : Turkish
Меню
00:00:00.000 : en: Search for Immortality
00:05:24.074 : en: Cursed by the Wizard
00:09:52.133 : en: Retired Life
00:14:15.480 : en: Like Father, Like Son
00:19:13.402 : en: Finding the Tomb
00:24:33.681 : en: One Last Assignment
00:30:57.647 : en: Bringing Order
00:35:30.962 : en: Rise of the Emperor
00:42:16.367 : en: Happy New Year
00:48:17.686 : en: Family Meeting
00:52:26.894 : en: Not My Type
00:57:28.528 : en: Defending the Gateway
01:02:40.590 : en: Atop the Golden Tower
01:09:52.230 : en: Shangri-La
01:15:54.216 : en: Reaching the Pool
01:21:00.981 : en: Awaken the Army
01:25:33.420 : en: Prepare for Battle
01:33:54.963 : en: Divide and Conquer
01:39:53.946 : en: The Next Adventure
01:41:28.499 : en: End Credits
[th]http://pics.kz/i1/cd/cb/cdcb332bcf308d4eeabbe59fbd4397a4.png[/th] [th]http://pics.kz/i2/e0/f9/e0f9983bfc4c08fd5b2d67ebb3941570.png[/th] [th]http://pics.kz/i3/9e/23/9e235b9e95d77e8a5fe5ab4f9b1dd403.png[/th]

[Цитировать]



Показать сообщения:    

Текущее время: 26-Июн 02:55

Часовой пояс: UTC + 6


Вы не можете начинать темы
Вы не можете отвечать на сообщения
Вы не можете редактировать свои сообщения
Вы не можете удалять свои сообщения
Вы не можете голосовать в опросах
Вы не можете прикреплять файлы к сообщениям
Вы не можете скачивать файлы

!ВНИМАНИЕ!
Сайт не предоставляет электронные версии произведений, а занимается лишь коллекционированием и каталогизацией ссылок, присылаемых и публикуемых на форуме нашими читателями. Если вы являетесь правообладателем какого-либо представленного материала и не желаете, чтобы ссылка на него находилась в нашем каталоге, свяжитесь с нами, и мы незамедлительно удалим ее. Файлы для обмена на трекере предоставлены пользователями сайта, и администрация не несет ответственности за их содержание. Просьба не заливать файлы, защищенные авторскими правами, а также файлы нелегального содержания!