[ Сегодня идет свободное скачивание без начисления Download ]


Статистика раздачи
Нет
 
   
 
Top  
 
 
Воин / Warrior«Дерись за семью. Борись за страну.»
Год выпуска: 2011
Страна: США
Производство: Filmtribe, Lionsgate, Mimran Schur Pictures, Solaris
Жанр: драма, спорт
Режиссер: Гэвин О’Коннор
В ролях: Джоэл Эдгертон (Brendan Conlon), Том Харди (Tommy Conlon), Ник Нолти (Paddy Conlon), Дженнифер Моррисон (Tess Conlon), Фрэнк Грилло (Frank Campana), Кевин Данн (Principal Zito), Максимилианно Эрнандез (Colt Boyd), Брайан Коллен (играет самого себя), Сэм Шеридан (играет самого себя), Фернандо Чиен (Fenroy), Джэйк МакЛафлин (Mark Bradford), Ванесса Мартинез (Pilar Fernandez)
Перевод: Профессиональный (многоголосый, закадровый) + Авторский (оноголосый, закадровый) - Ю.Сербин
Субтитры: Русские, Английские
Описание: Томми Конлон — молодой боец, вернувшийся домой после долгого отсутствия, чтобы приготовиться к участию в большом турнире. Отец-пьяница, в прошлом талантливый боксер, берется тренировать сына. Томми с успехом проходит все этапы соревнования, но кто бы мог подумать, что в финале судьба столкнет его на ринге… с собственным братом.
[kp]442568[/kp] [imdb]tt1291584[/imdb]
Качество: BDRip-AVC
Продолжительность: 02:19:54
Формат: MKV
Видео кодек: AVC
Аудио кодек: AC3
Видео: 1080x450, (2.40:1), 23.976 fps, AVC, 4328 kbps avg, 0.371 bit/pixel
Аудио: 48 kHz, АС3, 3/2 (L,C,R,l,r) + LFE ch, ~448.00 kbps avg - (Профессиональный (многоголосый закадровый))
Аудио #2: 48 kHz, АС3, 3/2 (L,C,R,l,r) + LFE ch, ~448.00 kbps avg - Авторский (оноголосый, закадровый) - Ю.Сербин
Аудио #3: 48 kHz, АС3, 3/2 (L,C,R,l,r) + LFE ch, ~448.00 kbps avg - (Оригинал)
Премьера (мир): 9 сентября 2011

Media Info

General
Unique ID                                : 243625468732993616107647298582215980191 (0xB7488EFCCB2C2685A723EF941164F49F)
Complete name                            : Warrior.barm.mkv
Format                                   : Matroska
Format version                           : Version 2
File size                                : 5.54 GiB
Duration                                 : 2h 19mn
Overall bit rate                         : 5 674 Kbps
Movie name                               : Warrior 2011
Encoded date                             : UTC 2012-03-30 17:03:05
Writing application                      : mkvmerge v5.4.0 ('Piper') built on Mar 10 2012 13:34:39
Writing library                          : libebml v1.2.3   libmatroska v1.3.0
Attachment                               : Yes / Yes
Video
ID                                       : 1
Format                                   : AVC
Format/Info                              : Advanced Video Codec
Format profile                           : High@L4.0
Format settings, CABAC                   : Yes
Format settings, ReFrames                : 12 frames
Codec ID                                 : V_MPEG4/ISO/AVC
Duration                                 : 2h 19mn
Bit rate                                 : 4 328 Kbps
Width                                    : 1 080 pixels
Height                                   : 450 pixels
Display aspect ratio                     : 2.40:1
Frame rate                               : 23.976 fps
Color space                              : YUV
Chroma subsampling                       : 4:2:0
Bit depth                                : 8 bits
Scan type                                : Progressive
Bits/(Pixel*Frame)                       : 0.371
Stream size                              : 4.12 GiB (74%)
Title                                    : Warrior
Writing library                          : x264 core 122 r2184 5c85e0a
Encoding settings                        : cabac=1 / ref=12 / deblock=1:-2:-2 / analyse=0x3:0x133 / me=umh / subme=10 / psy=1 / psy_rd=0.90:0.05 / mixed_ref=1 / me_range=48 /
chroma_me=1 / trellis=2 / 8x8dct=1 / cqm=0 / deadzone=21,11 / fast_pskip=0 / chroma_qp_offset=-3 / threads=6 / sliced_threads=0 / nr=0 / decimate=0 / interlaced=0 /
bluray_compat=0 / constrained_intra=0 / bframes=10 / b_pyramid=2 / b_adapt=2 / b_bias=0 / direct=3 / weightb=1 / open_gop=0 / weightp=2 / keyint=250 / keyint_min=23 /
scenecut=40 / intra_refresh=0 / rc_lookahead=60 / rc=2pass / mbtree=0 / bitrate=4328 / ratetol=1.0 / qcomp=0.58 / qpmin=0 / qpmax=69 / qpstep=4 / cplxblur=20.0 /
qblur=0.5 / vbv_maxrate=25000 / vbv_bufsize=31250 / nal_hrd=none / ip_ratio=1.40 / pb_ratio=1.30 / aq=2:0.70 / zones=189190,201259,q=35
Language                                 : English
Default                                  : Yes
Forced                                   : No
Matrix coefficients                      : BT.709-5, BT.1361, IEC 61966-2-4 709, SMPTE RP177
Audio #1
ID                                       : 2
Format                                   : AC-3
Format/Info                              : Audio Coding 3
Mode extension                           : CM (complete main)
Codec ID                                 : A_AC3
Duration                                 : 2h 19mn
Bit rate mode                            : Constant
Bit rate                                 : 448 Kbps
Channel(s)                               : 6 channels
Channel positions                        : Front: L C R, Side: L R, LFE
Sampling rate                            : 48.0 KHz
Bit depth                                : 16 bits
Compression mode                         : Lossy
Stream size                              : 448 MiB (8%)
Title                                    : MVO, R5, 48 kHz, AC3, 3/2 (L,C,R,l,r)   LFE ch, ~ 448.00 kbps
Language                                 : Russian
Default                                  : Yes
Forced                                   : No
Audio #2
ID                                       : 3
Format                                   : AC-3
Format/Info                              : Audio Coding 3
Mode extension                           : CM (complete main)
Codec ID                                 : A_AC3
Duration                                 : 2h 19mn
Bit rate mode                            : Constant
Bit rate                                 : 448 Kbps
Channel(s)                               : 6 channels
Channel positions                        : Front: L C R, Side: L R, LFE
Sampling rate                            : 48.0 KHz
Bit depth                                : 16 bits
Compression mode                         : Lossy
Stream size                              : 448 MiB (8%)
Title                                    : AVO, J. Serbin, 48 kHz, AC3, 3/2 (L,C,R,l,r)   LFE ch, ~ 448.00 kbps
Language                                 : Russian
Default                                  : No
Forced                                   : No
Audio #3
ID                                       : 4
Format                                   : AC-3
Format/Info                              : Audio Coding 3
Mode extension                           : CM (complete main)
Codec ID                                 : A_AC3
Duration                                 : 2h 19mn
Bit rate mode                            : Constant
Bit rate                                 : 448 Kbps
Channel(s)                               : 6 channels
Channel positions                        : Front: L C R, Side: L R, LFE
Sampling rate                            : 48.0 KHz
Bit depth                                : 16 bits
Compression mode                         : Lossy
Stream size                              : 448 MiB (8%)
Title                                    : Original, 48 kHz, AC3, 3/2 (L,C,R,l,r)   LFE ch, ~ 448.00 kbps
Language                                 : English
Default                                  : No
Forced                                   : No
Text #1
ID                                       : 5
Format                                   : UTF-8
Codec ID                                 : S_TEXT/UTF8
Codec ID/Info                            : UTF-8 Plain Text
Title                                    : R5
Language                                 : Russian
Default                                  : No
Forced                                   : No
Text #2
ID                                       : 6
Format                                   : UTF-8
Codec ID                                 : S_TEXT/UTF8
Codec ID/Info                            : UTF-8 Plain Text
Title                                    : Serbin | by  СПАМ
Language                                 : Russian
Default                                  : No
Forced                                   : No
Text #3
ID                                       : 7
Format                                   : UTF-8
Codec ID                                 : S_TEXT/UTF8
Codec ID/Info                            : UTF-8 Plain Text
Language                                 : English
Default                                  : No
Forced                                   : No
Menu
00:00:00.000                             : en:1. Just Passing Through
00:10:32.840                             : en:2. I'll Fight Him
00:16:46.714                             : en:3. Quiet Night
00:26:34.551                             : en:4. A Tournament
00:39:08.971                             : en:5. Back in the Cage
00:45:49.621                             : en:6. Paddy's Plea
00:51:28.919                             : en:7. Keep Moving
00:58:27.795                             : en:8. I'm in
01:06:02.458                             : en:9. Dark Horse
01:14:27.254                             : en:10. Real Deal
01:22:32.906                             : en:11. Teaching a Lesson
01:30:35.638                             : en:12. Here to Fight
01:40:46.040                             : en:13. Trouble
01:52:55.977                             : en:14. Brothers
02:00:21.088                             : en:15. It's Over
02:06:50.394                             : en:16. New Beginnings


[Цитировать]

Спасибо за раздачу хороший фильм... На будущее заливайте скриншоты на наш хостинг изображений - Галерея. Спасибо

[Цитировать]

6408Спасибо за раздачу хороший фильм... На будущее заливайте скриншоты на наш хостинг изображений - Галерея. Спасибо
Пожалуйста!=) окей=)

[Цитировать]

Абсолютно шикарный фильм с великолепным Томом Харди, я именно его выделяю а не Джоэля Эдгертона. Больше именно Том впечатлил!

[Цитировать]



Показать сообщения:    

Текущее время: 10-Дек 07:57

Часовой пояс: UTC + 3


Вы не можете начинать темы
Вы не можете отвечать на сообщения
Вы не можете редактировать свои сообщения
Вы не можете удалять свои сообщения
Вы не можете голосовать в опросах
Вы не можете прикреплять файлы к сообщениям
Вы не можете скачивать файлы

!ВНИМАНИЕ!
Сайт не предоставляет электронные версии произведений, а занимается лишь коллекционированием и каталогизацией ссылок, присылаемых и публикуемых на форуме нашими читателями. Если вы являетесь правообладателем какого-либо представленного материала и не желаете, чтобы ссылка на него находилась в нашем каталоге, свяжитесь с нами, и мы незамедлительно удалим ее. Файлы для обмена на трекере предоставлены пользователями сайта, и администрация не несет ответственности за их содержание. Просьба не заливать файлы, защищенные авторскими правами, а также файлы нелегального содержания!