[ Сегодня идет свободное скачивание без начисления Download ]


Статистика раздачи
Нет
 
   
 
Top  
 
 
Информация о фильме
Название: Лазурный берег
Оригинальное название: By the Sea
Год выхода: 2015
Страна: США, Франция
Студия: Jolie Pas, Pellikola, Plan B Entertainment, Universal Pictures
Жанр: драма, мелодрама
Режиссер: Анджелина Джоли
В ролях: Брэд Питт, Анджелина Джоли, Мелани Лоран, Мельвиль Пупо, Нильс Ареструп, Ришар Боренже, Марика Грин, Сара Науди, Альдо Бонтемпо, Филипп Мартине, Френсис Ксереб, Малкольм Битанс, Кэтлин Битанс, Бьорн Кубин, Пенни Дикс, Джордж Камиллери, Аркадия Водка, Инди Марсо Коппола, Анна Качья, Фридерик Десса
О фильме:
Главные герои мелодрамы Лазурный берег — супружеская пара Ванесса и Роланд. Действие происходит во Франции середины 70-х годов, куда муж и жена сбежали от нью-йоркской суеты. В далекой Америке они оставили многое: она — карьеру танцовщицы и большую сцену, он — возможность реализовать себя как известный писатель. Путешествуя вместе по миру, Ванесса и Роланд все больше и больше отдаляются друг от друга. И, казалось бы, уже ничего не связывает их вместе. Но все изменилось в одном тихом и уютном городке на Лазурном берегу, где герои остановились на некоторое время. Здесь они познакомились с одной чувственной французской парой, которая внезапно пробудила между супругами опасную страсть.
Файл
Продолжительность: 02:02:12
Перевод: Дублированный (iTunes)
Формат: MKV
Кодек: HeVC/x265
Источник: BDRemux 1080p [33.88 GB]
Качество: BDRip 1080p
Видео: 1920x800p, 4282 Kbps, 8 bits, 23.976 (24000/1001) fps
Аудио1: AC3, 384 Kbps, 6ch, 48Khz | Дублированный, | iTunes
Аудио2: AC3, 448 Kbps, 6ch, 48Khz | Оригинал, | BD Disk
Субтитры: Русские (iTunes), английские (BD-Forced + BD FULL PSG)

Скриншоты



Информация по видеофайлу

Format version : Version 4 / Version 2
File size : 4.37 GiB
Duration : 2h 2mn
Overall bit rate : 5 121 Kbps
Movie name : Rip qusi555 (Baku, Azerbaijan)
Encoded date : UTC 2016-06-08 15:11:44
Writing application : mkvmerge v8.9.0 ('Father Daughter') 32bit
Writing library : libebml v1.3.3 + libmatroska v1.4.4
Video
ID : 1
Format : HEVC
Format/Info : High Efficiency Video Coding
Format profile : Main@L4@Main
Codec ID : V_MPEGH/ISO/HEVC
Duration : 2h 2mn
Bit rate : 4 282 Kbps
Width : 1 920 pixels
Height : 800 pixels
Display aspect ratio : 2.40:1
Frame rate mode : Constant
Frame rate : 23.976 (24000/1001) fps
Color space : YUV
Chroma subsampling : 4:2:0
Bit depth : 8 bits
Bits/(Pixel*Frame) : 0.116
Stream size : 3.66 GiB (84%)
Title : Rip qusi555 (Baku, Azerbaijan)
Writing library : x265 1.9+54-291beccb6760:[Windows][GCC 5.3.0][64 bit] 8bit+10bit+12bit
Encoding settings : wpp / ctu=64 / min-cu-size=8 / max-tu-size=32 / tu-intra-depth=1 / tu-inter-depth=1 / me=1 / subme=2 / merange=57 / no-rect / no-amp / max-merge=2 / temporal-mvp / no-early-skip / rdpenalty=0 / no-tskip / no-tskip-fast / strong-intra-smoothing / no-lossless / no-cu-lossless / no-constrained-intra / no-fast-intra / open-gop / no-temporal-layers / interlace=0 / keyint=250 / min-keyint=23 / scenecut=40 / rc-lookahead=20 / lookahead-slices=5 / bframes=4 / bframe-bias=0 / b-adapt=2 / ref=3 / limit-refs=3 / no-limit-modes / weightp / no-weightb / aq-mode=1 / qg-size=32 / aq-strength=1.00 / cbqpoffs=0 / crqpoffs=0 / rd=3 / psy-rd=2.00 / rdoq-level=0 / psy-rdoq=0.00 / no-rd-refine / signhide / deblock / sao / no-sao-non-deblock / b-pyramid / cutree / no-intra-refresh / rc=2 / pass / bitrate=4283 / qcomp=0.60 / qpmin=0 / qpmax=51 / qpstep=4 / cplxblur=20.0 / qblur=0.5 / ipratio=1.40 / pbratio=1.30
Default : Yes
Forced : No
Audio #1
ID : 2
Format : AC-3
Format/Info : Audio Coding 3
Mode extension : CM (complete main)
Format settings, Endianness : Big
Codec ID : A_AC3
Duration : 2h 2mn
Bit rate mode : Constant
Bit rate : 384 Kbps
Channel(s) : 6 channels
Channel positions : Front: L C R, Side: L R, LFE
Sampling rate : 48.0 KHz
Frame rate : 31.250 fps (1536 spf)
Compression mode : Lossy
Stream size : 336 MiB (7%)
Title : DUB [iTunes]
Language : Russian
Default : Yes
Forced : No
Audio #2
ID : 3
Format : AC-3
Format/Info : Audio Coding 3
Mode extension : CM (complete main)
Format settings, Endianness : Big
Codec ID : A_AC3
Duration : 2h 2mn
Bit rate mode : Constant
Bit rate : 448 Kbps
Channel(s) : 6 channels
Channel positions : Front: L C R, Side: L R, LFE
Sampling rate : 48.0 KHz
Frame rate : 31.250 fps (1536 spf)
Compression mode : Lossy
Stream size : 392 MiB (9%)
Title : BD DTS 1509 Convert Audio
Language : English
Default : No
Forced : No
Text #1
ID : 4
Format : UTF-8
Codec ID : S_TEXT/UTF8
Codec ID/Info : UTF-8 Plain Text
Duration : 1h 55mn
Bit rate : 41 bps
Count of elements : 841
Stream size : 34.7 KiB (0%)
Title : iTunes
Language : Russian
Default : No
Forced : No
Text #2
ID : 5
Format : PGS
Muxing mode : zlib
Codec ID : S_HDMV/PGS
Codec ID/Info : Picture based subtitle format used on BDs/HD-DVDs
Duration : 1h 57mn
Bit rate : 4 449 bps
Count of elements : 2148
Stream size : 3.73 MiB (0%)
Title : English-PGS
Language : English
Default : No
Forced : No
Text #3
ID : 6
Format : PGS
Muxing mode : zlib
Codec ID : S_HDMV/PGS
Codec ID/Info : Picture based subtitle format used on BDs/HD-DVDs
Duration : 1h 54mn
Bit rate : 538 bps
Count of elements : 410
Stream size : 452 KiB (0%)
Title : English-FORCED-PGS
Language : English
Default : No
Forced : No

Внимание! HEVC

*H.265/HEVC (High Efficiency Video Coding) - это новый стандарт кодирования видео.
*Рипы в фомате HEVC, в настоящее время не поддерживается большинством аппаратных проигрывателей.
*Для корректного воспроизведения может потребоваться обновление ПО.
*Стандарт H.265/HEVC является логическим продолжением стандарта H.264/AVC (Advanced Video Coding), и характеризуется более эффективными алгоритмами сжатия, а также поддержкой высокого разрешения вплоть до 8K UHD (8192x4320). Первая версия стандарта H.265 была опубликована в начале 2013 года.
Любителям решения из коробки - установить последнюю версию на выбор:
Media Player Classic - Black Edition (MPC-BE)
VLC media player
Daum Pot Player
GOM Media Player
Любителям WMP и других плееров, использующих по умолчанию для воспроизведения системные кодеки+сплитеры - установить K-Lite Codec Pack версии 10.1.0 и выше.
Любимые плееры, не использующии по умолчанию для воспроизведения системные кодеки+сплитеры, нужно перенастроить на использование оных.

[Цитировать]



Показать сообщения:    

Текущее время: 10-Дек 21:39

Часовой пояс: UTC + 3


Вы не можете начинать темы
Вы не можете отвечать на сообщения
Вы не можете редактировать свои сообщения
Вы не можете удалять свои сообщения
Вы не можете голосовать в опросах
Вы не можете прикреплять файлы к сообщениям
Вы не можете скачивать файлы

!ВНИМАНИЕ!
Сайт не предоставляет электронные версии произведений, а занимается лишь коллекционированием и каталогизацией ссылок, присылаемых и публикуемых на форуме нашими читателями. Если вы являетесь правообладателем какого-либо представленного материала и не желаете, чтобы ссылка на него находилась в нашем каталоге, свяжитесь с нами, и мы незамедлительно удалим ее. Файлы для обмена на трекере предоставлены пользователями сайта, и администрация не несет ответственности за их содержание. Просьба не заливать файлы, защищенные авторскими правами, а также файлы нелегального содержания!