[ Сегодня идет свободное скачивание без начисления Download ]


Статистика раздачи
Нет
 
   
 
Top  
 
 
Зелёный Шершень / The Green Hornet«Героям закон не писан»
Год выпуска: 2011
Страна: США
Производство: Sony Pictures Entertainment
Жанр: боевик, комедия, криминал
Режиссер: Мишель Гондри
В ролях: Сет Роген, Джей Чоу, Кристоф Вальц, Кэмерон Диаз, Том Уилкинсон, Дэвид Харбор, Эдвард Джеймс Олмос, Джэми Харрис, Чад Коулмэн, Эдвард Ферлонг
Перевод: Профессиональный (полное дублирование)
Субтитры: Английские
Описание: Сын медиа-магната «прожигает» свою жизнь в вечных пьянках и бесчисленных случайных связях. Но после неожиданной смерти отца он наконец осознает бесцельность своего существования и решает все изменить. Вместе с другом они становятся супергероями, которые борются с преступностью ее же методами, совершенно не считаясь с законом…
[kp]290751[/kp] [imdb]tt0990407[/imdb]
Качество: BDRip 1080p
Продолжительность: 01:58:53
Формат: MKV
Видео кодек: AVC
Аудио кодек: AC3, DTS
Видео: 1920x800, (2,40:1), (23,976 fps), битрейт (12,1 Мбит/сек (12,4 Мбит/сек), 0.327 bit/pixel)
Аудио: Русский: AC3 48000Hz 384Kbps (Дубляж)
Аудио #2: Английский: DTS 48000Hz 1510Kbps

Media Info

Complete name                            : D:\Фильмы\The.Green.Hornet.2011.BluRay.1080p.DTS.x264.mkv
Format                                   : Matroska
Format version                           : Version 2
File size                                : 11.8 GiB
Duration                                 : 1h 59mn
Overall bit rate                         : 14.2 Mbps
Encoded date                             : UTC 2011-04-01 21:03:25
Writing application                      : mkvmerge v4.4.0 ('Die Wiederkehr') сборка от Oct 31 2010 21:52:48
Writing library                          : libebml v1.0.0 + libmatroska v1.0.0
Video
ID                                       : 1
Format                                   : AVC
Format/Info                              : Advanced Video Codec
Format profile                           : High@L4.1
Format settings, CABAC                   : Yes
Format settings, ReFrames                : 5 frames
Codec ID                                 : V_MPEG4/ISO/AVC
Duration                                 : 1h 59mn
Bit rate                                 : 12.4 Mbps
Width                                    : 1 920 pixels
Height                                   : 800 pixels
Display aspect ratio                     : 2.40:1
Frame rate                               : 23.976 fps
Color space                              : YUV
Chroma subsampling                       : 4:2:0
Bit depth                                : 8 bits
Scan type                                : Progressive
Bits/(Pixel*Frame)                       : 0.335
Stream size                              : 10.0 GiB (85%)
Title                                    : The.Green.Hornet.2011
Writing library                          : x264 core 114 r1924 08d04a4
Encoding settings                        : cabac=1 / ref=5 / deblock=1:-3:-3 / analyse=0x3:0x113 / me=umh / subme=10 / psy=1 / psy_rd=1.05:0.10 / mixed_ref=1 / me_range=48 / chroma_me=1 / trellis=2 / 8x8dct=1 / cqm=2 / deadzone=21,11 / fast_pskip=0 / chroma_qp_offset=-2 / threads=12 / sliced_threads=0 / nr=0 / decimate=1 / interlaced=0 / constrained_intra=0 / bframes=6 / b_pyramid=2 / b_adapt=2 / b_bias=0 / direct=3 / weightb=1 / open_gop=0 / weightp=2 / keyint=250 / keyint_min=23 / scenecut=40 / intra_refresh=0 / rc_lookahead=60 / rc=2pass / mbtree=1 / bitrate=12350 / ratetol=1.0 / qcomp=0.70 / qpmin=1 / qpmax=63 / qpstep=4 / cplxblur=20.0 / qblur=0.5 / vbv_maxrate=40000 / vbv_bufsize=30000 / nal_hrd=none / ip_ratio=1.40 / aq=1:0.80
Language                                 : English
Default                                  : No
Forced                                   : No
Audio #1
ID                                       : 2
Format                                   : AC-3
Format/Info                              : Audio Coding 3
Mode extension                           : CM (complete main)
Format settings, Endianness              : Big
Codec ID                                 : A_AC3
Duration                                 : 1h 59mn
Bit rate mode                            : Constant
Bit rate                                 : 384 Kbps
Channel(s)                               : 6 channels
Channel positions                        : Front: L C R, Side: L R, LFE
Sampling rate                            : 48.0 KHz
Bit depth                                : 16 bits
Compression mode                         : Lossy
Stream size                              : 327 MiB (3%)
Title                                    : R5
Language                                 : Russian
Default                                  : Yes
Forced                                   : No
Audio #2
ID                                       : 3
Format                                   : DTS
Format/Info                              : Digital Theater Systems
Codec ID                                 : A_DTS
Duration                                 : 1h 59mn
Bit rate mode                            : Constant
Bit rate                                 : 1 510 Kbps
Channel(s)                               : 6 channels
Channel positions                        : Front: L C R, Side: L R, LFE
Sampling rate                            : 48.0 KHz
Bit depth                                : 24 bits
Compression mode                         : Lossy
Stream size                              : 1.26 GiB (11%)
Title                                    : DTS-CORE 1536K
Language                                 : English
Default                                  : No
Forced                                   : No
Text
ID                                       : 4
Format                                   : UTF-8
Codec ID                                 : S_TEXT/UTF8
Codec ID/Info                            : UTF-8 Plain Text
Language                                 : English
Default                                  : No
Forced                                   : No
[th]http://torrentsclub.org/pictures/2ccc80a0bb86ea2797...a3c3a19.png[/th] [th]http://torrentsclub.org/pictures/7014dc18432ed2ff7a...aed3deb.png[/th] [th]http://torrentsclub.org/pictures/41b96d84e6ebe70412...d02bfc8.png[/th]

[Цитировать]



Показать сообщения:    

Текущее время: 08-Дек 05:04

Часовой пояс: UTC + 3


Вы не можете начинать темы
Вы не можете отвечать на сообщения
Вы не можете редактировать свои сообщения
Вы не можете удалять свои сообщения
Вы не можете голосовать в опросах
Вы не можете прикреплять файлы к сообщениям
Вы не можете скачивать файлы

!ВНИМАНИЕ!
Сайт не предоставляет электронные версии произведений, а занимается лишь коллекционированием и каталогизацией ссылок, присылаемых и публикуемых на форуме нашими читателями. Если вы являетесь правообладателем какого-либо представленного материала и не желаете, чтобы ссылка на него находилась в нашем каталоге, свяжитесь с нами, и мы незамедлительно удалим ее. Файлы для обмена на трекере предоставлены пользователями сайта, и администрация не несет ответственности за их содержание. Просьба не заливать файлы, защищенные авторскими правами, а также файлы нелегального содержания!