[ Сегодня идет свободное скачивание без начисления Download ]


Статистика раздачи
Качаю: [ 1 ]
Скачал: [ 2 ]
 
   
 
Top  
 
 
ProfIT | T4: быстрый вход в мир современных фреймворков (2016) PCRec - Автор (режиссер): Степанцев Альберт
Жанр: Web, PHP, фреймворки
Описание:
Фреймворков на PHP много. Есть популярные и не очень, есть фреймворки с богатой историей, есть совсем новички. Немало и устаревших, уже уходящих со сцены.
Но есть один, который выделяется из общего ряда... Это фреймворк с условным названием "T4". Новый, модный, удобный, открытый. Коллективно разрабатывающийся студентами Академии программирования ProfIT.
Кстати, он интересен еще и тем, что именно на нём создан сайт и сервис Академии!
На примере этого замечательного фреймворка мы с вами, как на модели, рассмотрим основные принципы и приемы работы с любым современным фреймворком на языке PHP.
Особую ценность занятиям придает тот факт, что ведет их один из разработчиков фреймворка T4!
Продолжительность: 11:00:14
Качество видео: PCRec
Видео: AVC/H.264, 1280x684, ~437 - 501 Kbps
Аудио: AAC, 2 ch, 192 Kbps, VBR

Модули интенсива:

1. С чего начать?
2. Реализация MVC
3. Работа с базой данных, модели-1
4. Работа с базой данных, модели-2
5. Валидация, санитация и работа с данными в целом
6. Работаем с View
7. Система авторизации

Mediainfo:

General
Complete name                            : C:\Users\sa-ms\Desktop\profit\T4\2016-05-05 Интенсив «T4_ быстрый вход в мир современных фреймворков», урок 1.mp4
Format                                   : MPEG-4
Format profile                           : Base Media / Version 2
Codec ID                                 : mp42 (isom/mp42)
File size                                : 437 MiB
Duration                                 : 1h 34mn
Overall bit rate mode                    : Variable
Overall bit rate                         : 643 Kbps
Encoded date                             : UTC 2016-05-05 19:22:32
Tagged date                              : UTC 2016-05-05 19:22:32
gsst                                     : 0
gstd                                     : 5696783
Video
ID                                       : 1
Format                                   : AVC
Format/Info                              : Advanced Video Codec
Format profile                           : [url=mailto:High@L3.1]High@L3.1[/url]
Format settings, CABAC                   : Yes
Format settings, ReFrames                : 1 frame
Format settings, GOP                     : M=1, N=60
Codec ID                                 : avc1
Codec ID/Info                            : Advanced Video Coding
Duration                                 : 1h 34mn
Bit rate                                 : 449 Kbps
Maximum bit rate                         : 5 794 Kbps
Width                                    : 1 280 pixels
Height                                   : 684 pixels
Display aspect ratio                     : 1.85:1
Frame rate mode                          : Constant
Frame rate                               : 15.000 fps
Color space                              : YUV
Chroma subsampling                       : 4:2:0
Bit depth                                : 8 bits
Scan type                                : Progressive
Bits/(Pixel*Frame)                       : 0.034
Stream size                              : 305 MiB (70%)
Tagged date                              : UTC 2016-05-05 19:23:01
Color range                              : Limited
Color primaries                          : BT.709
Transfer characteristics                 : BT.709
Matrix coefficients                      : BT.709
Audio
ID                                       : 2
Format                                   : AAC
Format/Info                              : Advanced Audio Codec
Format profile                           : LC
Codec ID                                 : 40
Duration                                 : 1h 34mn
Bit rate mode                            : Variable
Bit rate                                 : 192 Kbps
Maximum bit rate                         : 201 Kbps
Channel(s)                               : 2 channels
Channel positions                        : Front: L R
Sampling rate                            : 44.1 KHz
Frame rate                               : 43.066 fps (1024 spf)
Compression mode                         : Lossy
Stream size                              : 130 MiB (30%)
Title                                    : IsoMedia File Produced by Google, 5-11-2011
Language                                 : Russian
Encoded date                             : UTC 2016-05-05 19:22:47
Tagged date                              : UTC 2016-05-05 19:23:01
General
Complete name                            : C:\Users\sa-ms\Desktop\profit\T4\2016-05-10 Интенсив «T4_ быстрый вход в мир современных фреймворков», урок 2.mp4
Format                                   : MPEG-4
Format profile                           : Base Media / Version 2
Codec ID                                 : mp42 (isom/mp42)
File size                                : 514 MiB
Duration                                 : 1h 53mn
Overall bit rate mode                    : Variable
Overall bit rate                         : 633 Kbps
Encoded date                             : UTC 2016-05-10 19:29:07
Tagged date                              : UTC 2016-05-10 19:29:07
gsst                                     : 0
gstd                                     : 6804188
Video
ID                                       : 1
Format                                   : AVC
Format/Info                              : Advanced Video Codec
Format profile                           : [url=mailto:High@L3.1]High@L3.1[/url]
Format settings, CABAC                   : Yes
Format settings, ReFrames                : 1 frame
Format settings, GOP                     : M=1, N=60
Codec ID                                 : avc1
Codec ID/Info                            : Advanced Video Coding
Duration                                 : 1h 53mn
Bit rate                                 : 439 Kbps
Maximum bit rate                         : 4 442 Kbps
Width                                    : 1 280 pixels
Height                                   : 684 pixels
Display aspect ratio                     : 1.85:1
Frame rate mode                          : Constant
Frame rate                               : 15.000 fps
Color space                              : YUV
Chroma subsampling                       : 4:2:0
Bit depth                                : 8 bits
Scan type                                : Progressive
Bits/(Pixel*Frame)                       : 0.033
Stream size                              : 356 MiB (69%)
Tagged date                              : UTC 2016-05-10 19:30:43
Color range                              : Limited
Color primaries                          : BT.709
Transfer characteristics                 : BT.709
Matrix coefficients                      : BT.709
Audio
ID                                       : 2
Format                                   : AAC
Format/Info                              : Advanced Audio Codec
Format profile                           : LC
Codec ID                                 : 40
Duration                                 : 1h 53mn
Bit rate mode                            : Variable
Bit rate                                 : 192 Kbps
Maximum bit rate                         : 201 Kbps
Channel(s)                               : 2 channels
Channel positions                        : Front: L R
Sampling rate                            : 44.1 KHz
Frame rate                               : 43.066 fps (1024 spf)
Compression mode                         : Lossy
Stream size                              : 156 MiB (30%)
Title                                    : IsoMedia File Produced by Google, 5-11-2011
Language                                 : English
Encoded date                             : UTC 2016-05-10 19:30:08
Tagged date                              : UTC 2016-05-10 19:30:43
General
Complete name                            : C:\Users\sa-ms\Desktop\profit\T4\2016-05-13 Интенсив «T4_ быстрый вход в мир современных фреймворков», урок 3.mp4
Format                                   : MPEG-4
Format profile                           : Base Media / Version 2
Codec ID                                 : mp42 (isom/mp42)
File size                                : 421 MiB
Duration                                 : 1h 27mn
Overall bit rate mode                    : Variable
Overall bit rate                         : 676 Kbps
Encoded date                             : UTC 2016-05-13 18:49:43
Tagged date                              : UTC 2016-05-13 18:49:43
gsst                                     : 0
gstd                                     : 5226996
Video
ID                                       : 1
Format                                   : AVC
Format/Info                              : Advanced Video Codec
Format profile                           : [url=mailto:High@L3.1]High@L3.1[/url]
Format settings, CABAC                   : Yes
Format settings, ReFrames                : 1 frame
Format settings, GOP                     : M=1, N=60
Codec ID                                 : avc1
Codec ID/Info                            : Advanced Video Coding
Duration                                 : 1h 27mn
Bit rate                                 : 482 Kbps
Maximum bit rate                         : 3 404 Kbps
Width                                    : 1 280 pixels
Height                                   : 684 pixels
Display aspect ratio                     : 1.85:1
Frame rate mode                          : Constant
Frame rate                               : 15.000 fps
Color space                              : YUV
Chroma subsampling                       : 4:2:0
Bit depth                                : 8 bits
Scan type                                : Progressive
Bits/(Pixel*Frame)                       : 0.037
Stream size                              : 300 MiB (71%)
Tagged date                              : UTC 2016-05-13 18:50:31
Color range                              : Limited
Color primaries                          : BT.709
Transfer characteristics                 : BT.709
Matrix coefficients                      : BT.709
Audio
ID                                       : 2
Format                                   : AAC
Format/Info                              : Advanced Audio Codec
Format profile                           : LC
Codec ID                                 : 40
Duration                                 : 1h 27mn
Bit rate mode                            : Variable
Bit rate                                 : 192 Kbps
Maximum bit rate                         : 201 Kbps
Channel(s)                               : 2 channels
Channel positions                        : Front: L R
Sampling rate                            : 44.1 KHz
Frame rate                               : 43.066 fps (1024 spf)
Compression mode                         : Lossy
Stream size                              : 120 MiB (28%)
Title                                    : IsoMedia File Produced by Google, 5-11-2011
Language                                 : English
Encoded date                             : UTC 2016-05-13 18:50:08
Tagged date                              : UTC 2016-05-13 18:50:31
General
Complete name                            : C:\Users\sa-ms\Desktop\profit\T4\2016-05-17 Интенсив «T4_ быстрый вход в мир современных фреймворков», урок 4.mp4
Format                                   : MPEG-4
Format profile                           : Base Media / Version 2
Codec ID                                 : mp42 (isom/mp42)
File size                                : 536 MiB
Duration                                 : 1h 47mn
Overall bit rate mode                    : Variable
Overall bit rate                         : 695 Kbps
Encoded date                             : UTC 2016-05-17 19:25:13
Tagged date                              : UTC 2016-05-17 19:25:13
gsst                                     : 0
gstd                                     : 6471308
Video
ID                                       : 1
Format                                   : AVC
Format/Info                              : Advanced Video Codec
Format profile                           : [url=mailto:High@L3.1]High@L3.1[/url]
Format settings, CABAC                   : Yes
Format settings, ReFrames                : 1 frame
Format settings, GOP                     : M=1, N=60
Codec ID                                 : avc1
Codec ID/Info                            : Advanced Video Coding
Duration                                 : 1h 47mn
Bit rate                                 : 501 Kbps
Maximum bit rate                         : 4 151 Kbps
Width                                    : 1 280 pixels
Height                                   : 684 pixels
Display aspect ratio                     : 1.85:1
Frame rate mode                          : Constant
Frame rate                               : 15.000 fps
Color space                              : YUV
Chroma subsampling                       : 4:2:0
Bit depth                                : 8 bits
Scan type                                : Progressive
Bits/(Pixel*Frame)                       : 0.038
Stream size                              : 387 MiB (72%)
Tagged date                              : UTC 2016-05-17 19:26:38
Color range                              : Limited
Color primaries                          : BT.709
Transfer characteristics                 : BT.709
Matrix coefficients                      : BT.709
Audio
ID                                       : 2
Format                                   : AAC
Format/Info                              : Advanced Audio Codec
Format profile                           : LC
Codec ID                                 : 40
Duration                                 : 1h 47mn
Bit rate mode                            : Variable
Bit rate                                 : 192 Kbps
Maximum bit rate                         : 201 Kbps
Channel(s)                               : 2 channels
Channel positions                        : Front: L R
Sampling rate                            : 44.1 KHz
Frame rate                               : 43.066 fps (1024 spf)
Compression mode                         : Lossy
Stream size                              : 148 MiB (28%)
Title                                    : IsoMedia File Produced by Google, 5-11-2011
Language                                 : English
Encoded date                             : UTC 2016-05-17 19:25:57
Tagged date                              : UTC 2016-05-17 19:26:38
General
Complete name                            : C:\Users\sa-ms\Desktop\profit\T4\2016-05-24 Интенсив «T4_ быстрый вход в мир современных фреймворков», урок 5.mp4
Format                                   : MPEG-4
Format profile                           : Base Media / Version 2
Codec ID                                 : mp42 (isom/mp42)
File size                                : 448 MiB
Duration                                 : 1h 30mn
Overall bit rate mode                    : Variable
Overall bit rate                         : 689 Kbps
Encoded date                             : UTC 2016-05-24 18:51:37
Tagged date                              : UTC 2016-05-24 18:51:37
gsst                                     : 0
gstd                                     : 5453020
Video
ID                                       : 1
Format                                   : AVC
Format/Info                              : Advanced Video Codec
Format profile                           : [url=mailto:High@L3.1]High@L3.1[/url]
Format settings, CABAC                   : Yes
Format settings, ReFrames                : 1 frame
Format settings, GOP                     : M=1, N=60
Codec ID                                 : avc1
Codec ID/Info                            : Advanced Video Coding
Duration                                 : 1h 30mn
Bit rate                                 : 495 Kbps
Maximum bit rate                         : 6 632 Kbps
Width                                    : 1 280 pixels
Height                                   : 684 pixels
Display aspect ratio                     : 1.85:1
Frame rate mode                          : Constant
Frame rate                               : 15.000 fps
Color space                              : YUV
Chroma subsampling                       : 4:2:0
Bit depth                                : 8 bits
Scan type                                : Progressive
Bits/(Pixel*Frame)                       : 0.038
Stream size                              : 322 MiB (72%)
Tagged date                              : UTC 2016-05-24 18:52:07
Color range                              : Limited
Color primaries                          : BT.709
Transfer characteristics                 : BT.709
Matrix coefficients                      : BT.709
Audio
ID                                       : 2
Format                                   : AAC
Format/Info                              : Advanced Audio Codec
Format profile                           : LC
Codec ID                                 : 40
Duration                                 : 1h 30mn
Bit rate mode                            : Variable
Bit rate                                 : 192 Kbps
Maximum bit rate                         : 201 Kbps
Channel(s)                               : 2 channels
Channel positions                        : Front: L R
Sampling rate                            : 44.1 KHz
Frame rate                               : 43.066 fps (1024 spf)
Compression mode                         : Lossy
Stream size                              : 125 MiB (28%)
Title                                    : IsoMedia File Produced by Google, 5-11-2011
Language                                 : English
Encoded date                             : UTC 2016-05-24 18:51:53
Tagged date                              : UTC 2016-05-24 18:52:07
General
Complete name                            : C:\Users\sa-ms\Desktop\profit\T4\2016-05-31 Интенсив «T4_ быстрый вход в мир современных фреймворков», урок 6.mp4
Format                                   : MPEG-4
Format profile                           : Base Media / Version 2
Codec ID                                 : mp42 (isom/mp42)
File size                                : 388 MiB
Duration                                 : 1h 18mn
Overall bit rate mode                    : Variable
Overall bit rate                         : 691 Kbps
Encoded date                             : UTC 2016-05-31 18:41:12
Tagged date                              : UTC 2016-05-31 18:41:12
gsst                                     : 0
gstd                                     : 4706405
Video
ID                                       : 1
Format                                   : AVC
Format/Info                              : Advanced Video Codec
Format profile                           : [url=mailto:High@L3.1]High@L3.1[/url]
Format settings, CABAC                   : Yes
Format settings, ReFrames                : 1 frame
Format settings, GOP                     : M=1, N=60
Codec ID                                 : avc1
Codec ID/Info                            : Advanced Video Coding
Duration                                 : 1h 18mn
Bit rate                                 : 497 Kbps
Maximum bit rate                         : 4 630 Kbps
Width                                    : 1 280 pixels
Height                                   : 684 pixels
Display aspect ratio                     : 1.85:1
Frame rate mode                          : Constant
Frame rate                               : 15.000 fps
Color space                              : YUV
Chroma subsampling                       : 4:2:0
Bit depth                                : 8 bits
Scan type                                : Progressive
Bits/(Pixel*Frame)                       : 0.038
Stream size                              : 279 MiB (72%)
Tagged date                              : UTC 2016-05-31 18:42:01
Color range                              : Limited
Color primaries                          : BT.709
Transfer characteristics                 : BT.709
Matrix coefficients                      : BT.709
Audio
ID                                       : 2
Format                                   : AAC
Format/Info                              : Advanced Audio Codec
Format profile                           : LC
Codec ID                                 : 40
Duration                                 : 1h 18mn
Bit rate mode                            : Variable
Bit rate                                 : 192 Kbps
Maximum bit rate                         : 201 Kbps
Channel(s)                               : 2 channels
Channel positions                        : Front: L R
Sampling rate                            : 44.1 KHz
Frame rate                               : 43.066 fps (1024 spf)
Compression mode                         : Lossy
Stream size                              : 108 MiB (28%)
Title                                    : IsoMedia File Produced by Google, 5-11-2011
Language                                 : English
Encoded date                             : UTC 2016-05-31 18:41:40
Tagged date                              : UTC 2016-05-31 18:42:01
Скриншоты:

[Цитировать]



Показать сообщения:    

Текущее время: 10-Дек 19:44

Часовой пояс: UTC + 3


Вы не можете начинать темы
Вы не можете отвечать на сообщения
Вы не можете редактировать свои сообщения
Вы не можете удалять свои сообщения
Вы не можете голосовать в опросах
Вы не можете прикреплять файлы к сообщениям
Вы не можете скачивать файлы

!ВНИМАНИЕ!
Сайт не предоставляет электронные версии произведений, а занимается лишь коллекционированием и каталогизацией ссылок, присылаемых и публикуемых на форуме нашими читателями. Если вы являетесь правообладателем какого-либо представленного материала и не желаете, чтобы ссылка на него находилась в нашем каталоге, свяжитесь с нами, и мы незамедлительно удалим ее. Файлы для обмена на трекере предоставлены пользователями сайта, и администрация не несет ответственности за их содержание. Просьба не заливать файлы, защищенные авторскими правами, а также файлы нелегального содержания!