[ Сегодня идет свободное скачивание без начисления Download ]


Статистика раздачи
Нет
 
   
 
Top  
 
 
Варкрафт / Warcraft
Страна: США
Производство: Universal Pictures, Legendary Pictures, Blizzard Entertainment, Atlas Entertainment
Год выпуска: 2016
Жанр: фэнтези, боевик, приключения
Продолжительность: 02:03:47
Режиссер: Дункан Джонс
Авторы сценария: Дункан Джонс, Чарльз Ливитт, Крис Метцен
В ролях: Трэвис Фиммел, Пола Пэттон, Бен Фостер, Доминик Купер, Тоби Кеббелл, Бен Шнетцер, Роберт Казински, Клэнси Браун
Описание: Веками магия и неприступные стены защищали людей от любых напастей. Но древнее зло, побежденное и забытое тысячелетия назад, пробудилось. В самом сердце королевства открылся темный портал, и раса невиданных существ наводнила земли Азерота. Так начались события, призванные навсегда изменить судьбу этого мира...

Перевод: Профессиональный (полное дублирование) | звук с CAMRip
Субтитры: китайские (вшитые)-Качество: Telecine
Формат: АVI
Видео кодек: XviD
Аудио кодек: АС3
Видео: 720x304 (2.35:1), 29.970 fps, XviD ~1 387 kbps avg
Аудио: 48.0 kHz, AC3 Dolby Digital, 2/0 (L,R) ch, ~128 kbps
Дата премьеры (мир): 19 мая 2016
Дата премьеры (РФ): 26 мая 2016, «UPI»

Media Info

General
Название : BaPkPaft.2016.D.TC.1400MB.avi
Формат : AVI
Формат/Info : Audio Video Interleave
Размер файла : 1.37 GiB
Длительность : 2h 3mn
Общий Битрейт : 1 587 Kbps
Movie name : BaPkPaft.2016.D.TC.1400MB
Создано приложением : VirtualDubMod 1.5.10.2 (build 2540/release)
Original source form/Name : Movie
Video
ID : 0
Формат : MPEG-4 Visual
Формат profile : Advanced Simple@L5
Формат настройки, BVOP : 2
Формат настройки, QPel : No
Формат настройки, GMC : No warppoints
Формат настройки, Matrix : Default (MPEG)
Кодек ID : XVID
Кодек ID/Hint : XviD
Длительность : 2h 3mn
Битрейт : 1 387 Kbps
Width : 720 пикселей
Высота : 304 пикселей
Соотношение кадра : 2.35:1
Частота кадров : 29.970 fps
Цветопередача : YUV
Chroma subsampling : 4:2:0
Разрядность : 8 bits
Тип сканирования : Progressive
Режим сжатия : Lossy
Bits/(Pixel*Frame) : 0.211
Размер потока : 1.20 GiB (87%)
Writing library : XviD 1.2.1 (UTC 2008-12-04)
Audio
ID : 1
Формат : AC-3
Формат/Info : Audio Coding 3
Расширение режима : CM (complete main)
Кодек ID : 2000
Длительность : 2h 3mn
Битрейт mode : Constant
Битрейт : 128 Kbps
Channel(s) : 2 канала
Channel positions : Front: L R
Частота : 48.0 KHz
Разрядность : 16 bits
Режим сжатия : Lossy
Размер потока : 113 MiB (8%)
Выравнивание : Split accross interleaves

Скриншоты

[Цитировать]

Здесь рекламы нет... :ae: :ag:

[Цитировать]

52448Здесь рекламы нет... :ae: :ag:
:ca: :ca: :ca: :bj: :bj: :bj:

[Цитировать]

Хороший фильм получился, дух игры присутствует. Симпатичная зелёная Пола Пэттон с клыками. :ab:
Конец фильма с намёком на продолжение...

[Цитировать]



Показать сообщения:    

Текущее время: 11-Дек 11:08

Часовой пояс: UTC + 3


Вы не можете начинать темы
Вы не можете отвечать на сообщения
Вы не можете редактировать свои сообщения
Вы не можете удалять свои сообщения
Вы не можете голосовать в опросах
Вы не можете прикреплять файлы к сообщениям
Вы не можете скачивать файлы

!ВНИМАНИЕ!
Сайт не предоставляет электронные версии произведений, а занимается лишь коллекционированием и каталогизацией ссылок, присылаемых и публикуемых на форуме нашими читателями. Если вы являетесь правообладателем какого-либо представленного материала и не желаете, чтобы ссылка на него находилась в нашем каталоге, свяжитесь с нами, и мы незамедлительно удалим ее. Файлы для обмена на трекере предоставлены пользователями сайта, и администрация не несет ответственности за их содержание. Просьба не заливать файлы, защищенные авторскими правами, а также файлы нелегального содержания!