[ Сегодня идет свободное скачивание без начисления Download ]


Статистика раздачи
Нет
 
   
 
Top  
 
 
Солт [Театральная версия] / Salt [Theatrical Cut]«Кто она?»
Год выпуска: 2010
Страна: США
Производство: Columbia Pictures, Di Bonaventura Pictures, Relativity Media
Жанр: боевик, триллер, криминал, детектив
Режиссер: Филлип Нойс
В ролях: Анджелина Джоли, Лив Шрайбер, Чиветел Эджиофор, Даниэль Ольбрыхский, Аугуст Диль, Дэниэл Пирс, Хант Блок, Андре Брогер, Олек Крупа, Кэссиди Хинкль
Перевод: Профессиональный (полное дублирование) + Субтитры
Субтитры: Русские, Английские
Описание: Эвелин Солт — сотрудница ЦРУ. Ей чудом удаётся избежать тюрьмы: собственное агентство выдвигает против неё необоснованные обвинения в том, что она работает на русскую разведку. Теперь Солт необходимо восстановить своё доброе имя.
[kp]447284[/kp] [imdb]tt0944835[/imdb]
Качество: BDRip-AVC
Продолжительность: 01:39:59
Формат: MKV
Видео кодек: AVC
Аудио кодек: AC3
Видео: 1200x500 (2.35:1), 23,976 fps, AVC, 2 932 kbps avg, 0.204 bit/pixel
Аудио: 48 kHz, АС3, 3/2 (L,C,R,l,r) + LFE ch, ~384.00 kbps avg - (Профессиональный (полное дублирование))
Аудио #2: 48 kHz, АС3, 3/2 (L,C,R,l,r) + LFE ch, ~448.00 kbps avg - (Оригинал) - Английский
Премьера (мир): 19 июля 2010
Премьера (РФ): 29 июля 2010, «WDSSPR»

Media Info

General
Complete name                    : I:\Torrents\Salt.barm.mkv
Format                           : Matroska
File size                        : 2.68 GiB
Duration                         : 1h 40mn
Overall bit rate                 : 3 840 Kbps
Encoded date                     : UTC 2010-11-24 14:18:28
Writing application              : mkvmerge v4.4.0 ('Die Wiederkehr') built on Oct 31 2010 21:52:48
Writing library                  : libebml v1.0.0 + libmatroska v1.0.0
Cover                            : Yes
Video
ID                               : 1
Format                           : AVC
Format/Info                      : Advanced Video Codec
Format profile                   : [email protected]
Format settings, CABAC           : Yes
Format settings, ReFrames        : 11 frames
Codec ID                         : V_MPEG4/ISO/AVC
Duration                         : 1h 40mn
Bit rate                         : 2 932 Kbps
Width                            : 1 200 pixels
Height                           : 500 pixels
Display aspect ratio             : 2.40:1
Frame rate                       : 23.976 fps
Color space                      : YUV
Chroma subsampling               : 4:2:0
Bit depth                        : 8 bits
Scan type                        : Progressive
Bits/(Pixel*Frame)               : 0.204
Stream size                      : 2.05 GiB (76%)
Title                            : Salt | Theatrical Cut
Writing library                  : x264 core 108 r1790 8eaf8a6
Encoding settings                : cabac=1 / ref=11 / deblock=1:-3:-2 / analyse=0x3:0x113 / me=umh / subme=10 / psy=1 / psy_rd=1.00:0.05 / mixed_ref=1 / me_range=32 /
chroma_me=1 / trellis=2 / 8x8dct=1 / cqm=0 / deadzone=21,11 / fast_pskip=1 / chroma_qp_offset=-3 / threads=6 / sliced_threads=0 / nr=0 / decimate=1 / interlaced=0 /
  constrained_intra=0 / bframes=9 / b_pyramid=2 / b_adapt=2 / b_bias=0 / direct=3 / weightb=1 / open_gop=0 / weightp=2 / keyint=250 / keyint_min=23 / scenecut=40 /
   intra_refresh=0 / rc_lookahead=60 / rc=crf / mbtree=1 / crf=18.9 / qcomp=0.67 / qpmin=10 / qpmax=51 / qpstep=4 / ip_ratio=1.40 / aq=2:0.90 / zones=133260,143855,q=35
Language                         : English
Matrix coefficients              : BT.709-5, BT.1361, IEC 61966-2-4 709, SMPTE RP177
Audio #1
ID                               : 2
Format                           : AC-3
Format/Info                      : Audio Coding 3
Mode extension                   : CM (complete main)
Codec ID                         : A_AC3
Duration                         : 1h 40mn
Bit rate mode                    : Constant
Bit rate                         : 384 Kbps
Channel(s)                       : 6 channels
Channel positions                : Front: L C R, Side: L R, LFE
Sampling rate                    : 48.0 KHz
Bit depth                        : 16 bits
Stream size                      : 275 MiB (10%)
Title                            : Dubljaz, 48 kHz, AC3, 3/2 (L,C,R,l,r) + LFE ch, ~ 384.00 kbps
Language                         : Russian
Audio #2
ID                               : 3
Format                           : AC-3
Format/Info                      : Audio Coding 3
Mode extension                   : CM (complete main)
Codec ID                         : A_AC3
Duration                         : 1h 40mn
Bit rate mode                    : Constant
Bit rate                         : 448 Kbps
Channel(s)                       : 6 channels
Channel positions                : Front: L C R, Side: L R, LFE
Sampling rate                    : 48.0 KHz
Bit depth                        : 16 bits
Stream size                      : 320 MiB (12%)
Title                            : Original, 48 kHz, AC3, 3/2 (L,C,R,l,r) + LFE ch, ~ 448.00 kbps
Language                         : English
Text #1
ID                               : 4
Format                           : UTF-8
Codec ID                         : S_TEXT/UTF8
Codec ID/Info                    : UTF-8 Plain Text
Title                            : Forced
Language                         : Russian
Text #2
ID                               : 5
Format                           : UTF-8
Codec ID                         : S_TEXT/UTF8
Codec ID/Info                    : UTF-8 Plain Text
Language                         : Russian
Text #3
ID                               : 6
Format                           : UTF-8
Codec ID                         : S_TEXT/UTF8
Codec ID/Info                    : UTF-8 Plain Text
Language                         : English
Menu
00:00:00.000                     : en:00:00:00.000
00:07:07.344                     : en:00:07:07.344
00:10:04.896                     : en:00:10:04.896
00:16:43.544                     : en:00:16:43.544
00:24:37.726                     : en:00:24:37.726
00:30:45.302                     : en:00:30:45.302
00:37:44.053                     : en:00:37:44.053
00:42:38.306                     : en:00:42:38.306
00:48:35.871                     : en:00:48:35.871
00:54:57.294                     : en:00:54:57.294
01:01:07.330                     : en:01:01:07.330
01:05:55.576                     : en:01:05:55.576
01:12:07.782                     : en:01:12:07.782
01:19:27.012                     : en:01:19:27.012
01:26:07.996                     : en:01:26:07.996
01:32:03.810                     : en:01:32:03.810

[Цитировать]



Показать сообщения:    

Текущее время: 05-Дек 05:28

Часовой пояс: UTC + 3


Вы не можете начинать темы
Вы не можете отвечать на сообщения
Вы не можете редактировать свои сообщения
Вы не можете удалять свои сообщения
Вы не можете голосовать в опросах
Вы не можете прикреплять файлы к сообщениям
Вы не можете скачивать файлы

!ВНИМАНИЕ!
Сайт не предоставляет электронные версии произведений, а занимается лишь коллекционированием и каталогизацией ссылок, присылаемых и публикуемых на форуме нашими читателями. Если вы являетесь правообладателем какого-либо представленного материала и не желаете, чтобы ссылка на него находилась в нашем каталоге, свяжитесь с нами, и мы незамедлительно удалим ее. Файлы для обмена на трекере предоставлены пользователями сайта, и администрация не несет ответственности за их содержание. Просьба не заливать файлы, защищенные авторскими правами, а также файлы нелегального содержания!