[ Today is free to download without increasing Download ]

DL-List and Torrent activity
Форсаж 5 / FAST FIVE«Всё решает скорость, всё решает команда»
[Год выпуска: 2011
Страна: США
Производство: Original Film
Жанр: боевик, триллер, криминал
Режиссер: Джастин Лин
В ролях: Вин Дизель, Пол Уокер, Джордана Брюстер, Дуэйн Джонсон, Тайриз Гибсон, Лудакрис, Мэтт Шульце, Санг Кенг, Галь Гадот, Эльза Патаки
Перевод: Профессиональный (полное дублирование)
Субтитры: Отсутствуют
Описание: Бывший полицейский Брайан О`Коннер вместе с бывалым лихачом Домиником Торетто совсем немного увлеклись жизнью вне закона. После того, как Брайан и Миа Торетто освободили Доминика, они не рискуют долго задерживаться на одном месте, так как являются желанной целью порядком недовольных копов.
[kp]496943[/kp] [imdb]tt1596343[/imdb]
Качество: HDRip
Продолжительность: 02:11:34
Формат: AVI
Видео кодек: XviD
Аудио кодек: MPEG Audio
Видео: 688x288 (2.39:1), 23.976 fps, XviD build 50, 702 kbps avg, 0.15 bit/pixel
Аудио: 48 kHz, MPEG Layer 3, 2 ch, 128.00 kbps avg

Media Info

ID                                       : 0
Format                                   : MPEG-4 Visual
Format profile                           : Advanced Simple@L5
Format settings, BVOP                    : 1
Format settings, QPel                    : No
Format settings, GMC                     : No warppoints
Format settings, Matrix                  : Custom
Codec ID                                 : XVID
Codec ID/Hint                            : XviD
Duration                                 : 2h 11mn
Bit rate                                 : 703 Kbps
Width                                    : 688 pixels
Height                                   : 288 pixels
Display aspect ratio                     : 2.40:1
Frame rate                               : 23.976 fps
Color space                              : YUV
Chroma subsampling                       : 4:2:0
Bit depth                                : 8 bits
Scan type                                : Progressive
Compression mode                         : Lossy
Bits/(Pixel*Frame)                       : 0.148
Stream size                              : 661 MiB (84%)
Writing library                          : XviD 1.2.1 (UTC 2008-12-04)
ID                                       : 1
Format                                   : MPEG Audio
Format version                           : Version 1
Format profile                           : Layer 3
Codec ID                                 : 55
Codec ID/Hint                            : MP3
Duration                                 : 2h 11mn
Bit rate mode                            : Constant
Bit rate                                 : 128 Kbps
Channel(s)                               : 2 channels
Sampling rate                            : 48.0 KHz
Compression mode                         : Lossy
Stream size                              : 120 MiB (15%)
Alignment                                : Aligned on interleaves
Interleave, duration                     : 42 ms (1.00 video frame)
Interleave, preload duration             : 504 ms
Writing library                          : LAME3.97
Encoding settings                        : -m s -V 4 -q 2 -lowpass 17 -b 128
[Стол заказов][Прием РГ][О нас "RG Dark Lords]


Display posts:    

Current time is: 25-Oct 06:10

All times are UTC + 3

You cannot post new topics in this forum
You cannot reply to topics in this forum
You cannot edit your posts in this forum
You cannot delete your posts in this forum
You cannot vote in polls in this forum
You cannot attach files in this forum
You cannot download files in this forum

The site does not give electronic versions of products, and is engaged only in a collecting and cataloguing of the references sent and published at a forum by our readers. If you are the legal owner of any submitted material and do not wish that the reference to it was in our catalogue, contact us and we shall immediately remove her. Files for an exchange on tracker are given by users of a site, and the administration does not bear the responsibility for their maintenance. The request to not fill in the files protected by copyrights, and also files of the illegal maintenance!