[ Сегодня идет свободное скачивание без начисления Download ]


Статистика раздачи
Скачал: [ 6 ]
 
   
 
Top  
 
 
Черные праздники / Holidays«У каждого своя тёмная сторона» Год выпуска: 2016
Страна: США
Производство: ArtCastle Productions, Distant Corners Entertainment Group Inc. XYZ Films
Жанр: Ужасы, комедия
Режиссёр: Энтони Скотт Бёрнс, Кевин Колш, Николас МакКарти
В ролях: Лоренца Иззо, Кевин Смит (I), Сет Грин, Клэр Грант, Рут Брэдли, Майкл Гросс, Джоселин Донахью, Ава Акрес, Майкл Сунь Ли, Эндрю Бауэн, Харли Моренштейн, Скотт Чарльз Стюарт, Шоун Парсонс, Кейт Рачески, Питер Кэмпион, Дженнифер ЛаФлер, Соня Кински, Марк Стегер, Софи Трауб, Меган Даффи
Перевод: Профессиональный (полное дублирование)[Чистый звук]
Субтитры: Отсутствуют
Описание: Мы привыкли ждать от праздников только всего самого доброго и хорошего, но у каждого из них есть и своя темная сторона — страшные и леденящие душу истории, которые не могли произойти в обычный день. Все они случились в одном богом забытом городе, во время таких праздников, как Хэллоуин, Пасха, День Святого Валентина, Рождество…
Антология всеми любимых праздников, пропущенных через призму человеческих страхов и предубеждений.
Дата премьеры (мир): 14 апреля 2016
Дата премьеры (РФ): 12 мая 2016, «Наше Кино»
Качество: WEB-DLRip
Продолжительность: 01:44:32
Формат: AVI
Видео кодек: XviD
Аудио кодек: AC3
Видео: 720x400 (16:9), 23,976 fps, Xvid ~1484 kbps avg, 0.215 bit/pixel
Аудио: 48 kHz, AC3, 2 ch, ~384.00 kbps avg | русский | Профессиональный (полное дублирование)[Чистый звук]

MediaInfo

Общее
Полное имя : D:\Torrents\Завершенные\Holidays.2016.D.WEB-DLRip.avi
Формат : AVI
Формат/Информация : Audio Video Interleave
Размер файла : 1,37 Гбайт
Продолжительность : 1 ч. 44 м.
Общий поток : 1877 Кбит/сек
Название фильма : rustorrents.info
Программа кодирования : VirtualDubMod 1.5.10.3 | www.virtualdub-fr.org || (build 2550/release)
Библиотека кодирования : VirtualDubMod build 2550/release
Видео
Идентификатор : 0
Формат : MPEG-4 Visual
Профиль формата : Advanced Simple@L5
Параметр BVOP формата : 2
Параметр QPel формата : Нет
Параметр GMC формата : Без точки перехода
Параметр матрицы формата : Выборочная
Идентификатор кодека : XVID
Идентификатор кодека/Подсказка : XviD
Продолжительность : 1 ч. 44 м.
Битрейт : 1484 Кбит/сек
Ширина : 720 пикселей
Высота : 400 пикселей
Соотношение сторон : 16:9
Частота кадров : 23,976 (23976/1000) кадра/сек
Цветовое пространство : YUV
Субдискретизация насыщенности : 4:2:0
Битовая глубина : 8 бит
Тип развёртки : Прогрессивная
Метод сжатия : С потерями
Бит/(Пиксели*Кадры) : 0.215
Размер потока : 1,08 Гбайт (79%)
Библиотека кодирования : XviD 1.2.1 (UTC 2008-12-04)
Аудио
Идентификатор : 1
Формат : AC-3
Формат/Информация : Audio Coding 3
Расширение режима : CM (complete main)
Параметр Endianness формата : Big
Идентификатор кодека : 2000
Продолжительность : 1 ч. 44 м.
Вид битрейта : Постоянный
Битрейт : 384 Кбит/сек
Каналы : 2 канала
Расположение каналов : Front: L R
Частота : 48,0 КГц
Частота кадров : 31,250 кадров/сек (1536 spf)
Метод сжатия : С потерями
Размер потока : 287 Мбайт (20%)
Выравнивание : Разделение по промежуткам
Продолжительность промежутка : 42 мс. (1,00 видеокадр)
Время предзагрузки промежутка : 500 мс.

Скриншоты

[Цитировать]



Показать сообщения:    

Текущее время: 07-Дек 11:44

Часовой пояс: UTC + 3


Вы не можете начинать темы
Вы не можете отвечать на сообщения
Вы не можете редактировать свои сообщения
Вы не можете удалять свои сообщения
Вы не можете голосовать в опросах
Вы не можете прикреплять файлы к сообщениям
Вы не можете скачивать файлы

!ВНИМАНИЕ!
Сайт не предоставляет электронные версии произведений, а занимается лишь коллекционированием и каталогизацией ссылок, присылаемых и публикуемых на форуме нашими читателями. Если вы являетесь правообладателем какого-либо представленного материала и не желаете, чтобы ссылка на него находилась в нашем каталоге, свяжитесь с нами, и мы незамедлительно удалим ее. Файлы для обмена на трекере предоставлены пользователями сайта, и администрация не несет ответственности за их содержание. Просьба не заливать файлы, защищенные авторскими правами, а также файлы нелегального содержания!