[ Сегодня идет свободное скачивание без начисления Download ]


Статистика раздачи
Нет
 
   
 
Top  
 
 
Пиратская Вечеринка - Armada Music Videos
Год выпуска: 2010
Страна: Нидерланды (Амстердам)
Жанр
: Trance
Продолжительность
: 02:23:51
Перевод
: Оригинальный (без перевода)
О концерте
:Armada Music — это независимый голландский лейбл звукозаписи, в основном выпускает музыку в стиле транс и хаус.
Компания была основана в июне 2003 года голландским DJ Армином ван Бьюреном, Микаэлем Пироном и Дэвидом Льюисом.
Лейбл привлёк внимание известных электронных музыкантов: Chicane, Маркус Шульц, Remy, M.I.K.E., Aly & Fila, Perry O'Neil, Max Graham, Mischa Daniels, Nick K and StoneBridge, которые управляют собствнными подразделениями в пределах Armada Music. Сам ван Бьюрен занимается лейблами Armind и A State Of Trance. У Armada Music в настоящее время существуют 27 различных подлейблов, представляющих различные виды электронной музыки.
Слово "Armada" в названии лейбла использует по 2 буквы из имени каждого основателя.
В борьбе с пиратством Armada Music опубликовала заявление, где просило ди-джеев не включать более чем на 2 минуты любую песню, принадлежащую данному лейблу и его подразделениям. Также была просьба отредактировать предыдущие подкасты.

Качество
: HDTVRip (720р/1080p)
Формат
: MP4,AVI
Видео кодек
: H264/AVC
Аудио кодек
: MP3,AAC
Видео
: 1280x720 / 1920x1080p (16:9),25,000 fps,AVC(x264) ~1926 - 6909 kbps avg, 0.17 bit/pixel
Аудио
: 44,1 kHz, MPEG Layer 3-AAC,, 2 ch, ~124-308 kbps avg

MI

Формат : MPEG-4
Профиль формата : Base Media / Version 2
Идентификатор кодека : mp42
Размер файла : 66,2 Мбайт
Продолжительность : 4 м. 30 с.
Режим общего битрейта : Переменный
Общий поток : 2053 Кбит/сек
Дата кодирования : UTC 2010-04-06 09:56:24
Дата пометки : UTC 2010-04-06 09:56:24
gsst : 0
gstd : 270790
gssd : BADC21502MH1296902965186057
gshh : v18.lscache3.c.youtube.com
Видео
Идентификатор : 2
Формат : AVC
Формат/Информация : Advanced Video Codec
Профиль формата : High@L3.1
Параметр CABAC формата : Да
Параметр ReFrames формата : 3 кадра
Идентификатор кодека : avc1
Идентификатор кодека/Информация : Advanced Video Coding
Продолжительность : 4 м. 30 с.
Битрейт : 1926 Кбит/сек
Максимальный битрейт : 6909 Кбит/сек
Ширина : 1280 пикселей
Высота : 720 пикселей
Соотношение сторон : 16:9
Режим частоты кадров : Постоянный
Частота кадров : 25,000 кадров/сек
Цветовое пространство : YUV
Субдискретизация насыщенности : 4:2:0
Битовая глубина : 8 бит
Тип развёртки : Прогрессивная
Бит/(Пиксели*Кадры) : 0.084
Размер потока : 62,1 Мбайт (94%)
Заголовок : (C) 2007 Google Inc. v08.13.2007.
Дата кодирования : UTC 2010-04-06 09:56:24
Дата пометки : UTC 2010-04-06 09:56:25
Аудио
Идентификатор : 1
Формат : AAC
Формат/Информация : Advanced Audio Codec
Профиль формата : LC
Идентификатор кодека : 40
Продолжительность : 4 м. 30 с.
Вид битрейта : Переменный
Битрейт : 124 Кбит/сек
Максимальный битрейт : 308 Кбит/сек
Каналы : 2 канала
Расположение каналов : Front: L R
Частота : 44,1 КГц
Метод сжатия : С потерями
Размер потока : 4,00 Мбайт (6%)
Заголовок : (C) 2007 Google Inc. v08.13.2007.
Дата кодирования : UTC 2010-04-06 09:56:24
Дата пометки : UTC 2010-04-06 09:56:25

Трэклист

1. Aly & Fila feat. Denise Rivera - My Mind is With You [Full HD] (4:30)
2. Armin Only - Mirage. Utrecht [Full HD] (2:22)
3. Armin van Buuren feat. Ana Criado - Down To Love [Full HD] (4:46)
4. Armin van Buuren feat. Justine Suissa - Burned with Desire [Full HD] (3:21)
5. Armin van Buuren vs Sophie Ellis-Bextor - Not Giving Up On Love [Full HD] (3:39)
6. ATB - Could You Believe [Full HD] (4:11)
7. ATB - Twisted Love [Full HD] (4:30)
8. Chicane feat. Adam Young - Middledistancerunner [Full HD] (4:18)
9. Chris Reece - Salvation [Full HD] (3:35)
10. Dash Berlin feat Emma Hewitt - Waiting [Full HD] (3:23)
11. Dash Berlin feat. Emma Hewitt - Disarm Yourself [Full HD] (3:55)
12. DJ Antoine - Move On Baby [Full HD] (3:26)
13. Dj Tiesto & Sneaky Sound System - I Will Be Here [Full HD] (3:32)
14. DJ's United - Remember Love [Full HD] (3:53)
15. Ernesto vs Bastian - Every Inch A King [Full HD] (4:12)
16. Fabio XB - Reflected [Full HD] (4:01)
17. Klaas & Bodybangers - Freak [Full HD] (3:18)
18. Klaas - Our Own Way [Full HD] (3:28)
19. Laurent Wolf - Explosion [Full HD] (4:01)
20. Lustral - I Feel You [Full HD] (3:51)
21. Markus Schulz - Future Cities [Full HD] (3:30)
22. Markus Schulz - Rain [Full HD] (3:26)
23. Markus Schulz feat. Khaz - Dark Heart Waiting [Full HD] (3:17)
24. Max Graham ft. Ana Criado - Nothing Else Matters [Full HD] (3:49)
25. Myon & Shane 54 - International Departures [Full HD] (3:46)
26. Nadia Ali - Rapture [Full HD] (4:42)
27. Paul Oakenfold feat. Matt Goss - Firefly [Full HD] (3:45)
28. Roger Shah presents Sunlounger - Coastline [Full HD] (5:05)
29. Roger Shah presents Sunlounger - Summer Escape [Full HD] (5:15)
30. Roger Shah presents Sunlounger - The Beach Side Of Life [Full HD] (5:24)
31. Signum (Ron Hagen & Pascal M) - Riddles In The Sand [Full HD] (3:45)
32. Susana feat. Omnia & The Blizzard - Closer [Full HD] (4:06)
33. Tiesto feat. Christian Burns - In The Dark [Full HD] (3:53)
34. Tim Berg - Seek Bromance [Full HD] (4:03)
35. Tomcraft - A Place Called Soul [Full HD] (2:47)
36. Tomcraft - Loneliness [Full HD] (3:23)
37. Yahel - Devotion (Armin van Buuren Remix) [Full HD] (3:43)[
Лучшие песни!!!

[Цитировать]



Показать сообщения:    

Текущее время: 07-Дек 17:26

Часовой пояс: UTC + 3


Вы не можете начинать темы
Вы не можете отвечать на сообщения
Вы не можете редактировать свои сообщения
Вы не можете удалять свои сообщения
Вы не можете голосовать в опросах
Вы не можете прикреплять файлы к сообщениям
Вы не можете скачивать файлы

!ВНИМАНИЕ!
Сайт не предоставляет электронные версии произведений, а занимается лишь коллекционированием и каталогизацией ссылок, присылаемых и публикуемых на форуме нашими читателями. Если вы являетесь правообладателем какого-либо представленного материала и не желаете, чтобы ссылка на него находилась в нашем каталоге, свяжитесь с нами, и мы незамедлительно удалим ее. Файлы для обмена на трекере предоставлены пользователями сайта, и администрация не несет ответственности за их содержание. Просьба не заливать файлы, защищенные авторскими правами, а также файлы нелегального содержания!