[ Сегодня идет свободное скачивание без начисления Download ]


Статистика раздачи
Скачал: [ 1 ]
 
   
 
Top  
 
 
Несносные леди / Mother's Day (2016) TS - Производство: США, Aperture Media Partner, Beatnik Films, Capacity Pictures, Gulfstream Pictures, May Day Movies
Жанр: Драма, комедия
Режиссер: Гэрри Маршалл
Актеры: Дженнифер Энистон, Джулия Робертс, Кейт Хадсон, Джейсон Судейкис, Шэй Митчелл, Брэндон Спинк, Мэттью Уолкер, Роб Нэгл
Описание:
Фитнес и шопинг, капризные предки и непослушные дети, завистливые подружки и надоевшие бывшие — милые составляющие настоящего женского счастья. А также мужского, если ты — отец-одиночка. И неважно, где и как сведет вас жизнь, если ты встретишь настоящую любовь. Главное — не сдаваться! Ведь судьба — это большой супермаркет, а не магазин на диване.

Рейтинг MPAA: PG (рекомендуется присутствие родителей)
Дата мировой премьеры: 13 апреля 2016
Дата премьеры в РФ: 28 апреля 2016, «Парадиз»
Продолжительность: 01:52:24
Качество видео: TS
Перевод: Любительский многоголосый
Субтитры: Отсутствуют
Реклама: Присутствуют вставки голосовой и текстовой рекламы.
Видео: MPEG4, XviD, 720x336 (2.2:1), 29.970 fps, 1 943 Kbps (0.268 bit/pixel)
Аудио: AC-3, 48.0 KHz, 2 ch, 320 Kbps, CBR - русский
Аудио: AC-3, 48.0 KHz, 2 ch, 320 Kbps, CBR - английский

Mediainfo:

Формат                                   : AVI
Формат/Информация                        : Audio Video Interleave
Профиль формата                          : OpenDML
Размер файла                             : 2,05 Гбайт
Продолжительность                        : 1 ч. 52 м.
Общий поток                              : 2606 Кбит/сек
Программа кодирования                    : VirtualDubMod 1.5.10.2 (build 2542/release)
Библиотека кодирования                   : VirtualDubMod build 2542/release
Видео
Идентификатор                            : 0
Формат                                   : MPEG-4 Visual
Профиль формата                          : Advanced Simple@L5
Параметр BVOP формата                    : 2
Параметр QPel формата                    : Нет
Параметр GMC формата                     : Без точки перехода
Параметр матрицы формата                 : Выборочная
Идентификатор кодека                     : XVID
Идентификатор кодека/Подсказка           : XviD
Продолжительность                        : 1 ч. 52 м.
Битрейт                                  : 1943 Кбит/сек
Ширина                                   : 720 пикселей
Высота                                   : 336 пикселей
Соотношение сторон                       : 2,143
Частота кадров                           : 29,970 кадров/сек
Цветовое пространство                    : YUV
Субдискретизация насыщенности            : 4:2:0
Битовая глубина                          : 8 бит
Тип развёртки                            : Прогрессивная
Метод сжатия                             : С потерями
Бит/(Пиксели*Кадры)                      : 0.268
Размер потока                            : 1,53 Гбайт (75%)
Библиотека кодирования                   : XviD 1.2.1 (UTC 2008-12-04)
Аудио #1
Идентификатор                            : 1
Формат                                   : AC-3
Формат/Информация                        : Audio Coding 3
Расширение режима                        : CM (complete main)
Параметр Endianness формата              : Big
Идентификатор кодека                     : 2000
Продолжительность                        : 1 ч. 52 м.
Вид битрейта                             : Постоянный
Битрейт                                  : 320 Кбит/сек
Каналы                                   : 2 канала
Расположение каналов                     : Front: L R
Частота                                  : 48,0 КГц
Битовая глубина                          : 16 бит
Метод сжатия                             : С потерями
Задержка видео                           : 7 мс.
Размер потока                            : 257 Мбайт (12%)
Выравнивание                             : Разделение по промежуткам
Продолжительность промежутка             : 33  мс. (1,00 видеокадр)
Время предзагрузки промежутка            : 500  мс.
Аудио #2
Идентификатор                            : 2
Формат                                   : AC-3
Формат/Информация                        : Audio Coding 3
Расширение режима                        : CM (complete main)
Параметр Endianness формата              : Big
Идентификатор кодека                     : 2000
Продолжительность                        : 1 ч. 52 м.
Вид битрейта                             : Постоянный
Битрейт                                  : 320 Кбит/сек
Каналы                                   : 2 канала
Расположение каналов                     : Front: L R
Частота                                  : 48,0 КГц
Битовая глубина                          : 16 бит
Метод сжатия                             : С потерями
Задержка видео                           : 7 мс.
Размер потока                            : 257 Мбайт (12%)
Выравнивание                             : Разделение по промежуткам
Продолжительность промежутка             : 33  мс. (1,00 видеокадр)
Время предзагрузки промежутка            : 500  мс.
Скриншоты:

[Цитировать]

Спасибо посмотрел.
Семейный фильм с прикольными моментами и без пошлого юмора. Дети - цветы жизни.
Звук эквалайзером на высокие частоты (full treble)

[Цитировать]



Показать сообщения:    

Текущее время: 10-Дек 13:55

Часовой пояс: UTC + 3


Вы не можете начинать темы
Вы не можете отвечать на сообщения
Вы не можете редактировать свои сообщения
Вы не можете удалять свои сообщения
Вы не можете голосовать в опросах
Вы не можете прикреплять файлы к сообщениям
Вы не можете скачивать файлы

!ВНИМАНИЕ!
Сайт не предоставляет электронные версии произведений, а занимается лишь коллекционированием и каталогизацией ссылок, присылаемых и публикуемых на форуме нашими читателями. Если вы являетесь правообладателем какого-либо представленного материала и не желаете, чтобы ссылка на него находилась в нашем каталоге, свяжитесь с нами, и мы незамедлительно удалим ее. Файлы для обмена на трекере предоставлены пользователями сайта, и администрация не несет ответственности за их содержание. Просьба не заливать файлы, защищенные авторскими правами, а также файлы нелегального содержания!