[ Сегодня идет свободное скачивание без начисления Download ]


Статистика раздачи
Скачал: [ 1 ]
 
   
 
Top  
 
 
Несносные леди / Mother's Day Информация о фильме
Название: Несносные леди
Оригинальное название: Mother's Day
Год выхода: 2016
Жанр: драма, комедия
Режиссер: Гэрри Маршалл
В ролях: Дженнифер Энистон, Джулия Робертс, Кейт Хадсон, Джейсон Судейкис, Тимоти Олифант, Шэй Митчелл, Калеб Браун, Брэндон Спинк, Сэм Маршалл, Сиена ЛаГамбина
О фильме: Фитнес и шопинг, капризные предки и непослушные дети, завистливые подружки и надоевшие бывшие — милые составляющие настоящего женского счастья. А также мужского, если ты — отец-одиночка. И неважно, где и как сведет вас жизнь, если ты встретишь настоящую любовь. Главное — не сдаваться! Ведь судьба — это большой супермаркет, а не магазин на диване.

Выпущено: США / Aperture Media Partners, Beatnik Films, Capacity Pictures, Gulfstream Pictures, May Day Movies, Open Road Films (II), Palm-Star Entertainment, Rice Films, Triad Film Works
Продолжительность: 01:53:01
Озвучивание: Дублированное [iTunes]
Файл
Формат: MKV
Качество: WEB-DL 720p
Видео: MPEG-4 AVC, 3936 Kb/s, [email protected]
Аудио: AC3, 384 kb/s (6 ch)

MI

Format : Matroska
Format version : Version 2
File size : 3.48 GiB
Duration : 1h 53mn
Overall bit rate : 4 407 Kbps
Encoded date : UTC 2016-06-14 18:09:41
Writing application : mkvmerge v8.3.0 ('Over the Horizon') 64bit
Writing library : libebml v1.3.1 + libmatroska v1.4.2
DURATION : 01:53:01.056000000
NUMBER_OF_FRAMES : 211908
NUMBER_OF_BYTES : 325490688
_STATISTICS_WRITING_APP : mkvmerge v8.3.0 ('Over the Horizon') 64bit
_STATISTICS_WRITING_DATE_UTC : 2016-06-14 18:09:41
_STATISTICS_TAGS : BPS DURATION NUMBER_OF_FRAMES NUMBER_OF_BYTES
Video
ID : 1
Format : AVC
Format/Info : Advanced Video Codec
Format profile : [email protected]
Format settings, CABAC : No
Format settings, ReFrames : 2 frames
Codec ID : V_MPEG4/ISO/AVC
Duration : 1h 53mn
Bit rate : 3 936 Kbps
Width : 960 pixels
Height : 692 pixels
Display aspect ratio : 1.85:1
Frame rate mode : Constant
Frame rate : 25.000 fps
Color space : YUV
Chroma subsampling : 4:2:0
Bit depth : 8 bits
Scan type : Progressive
Bits/(Pixel*Frame) : 0.237
Stream size : 3.11 GiB (89%)
Language : English
Default : Yes
Forced : No
Color primaries : BT.709
Transfer characteristics : BT.709
Matrix coefficients : BT.709
Audio
ID : 2
Format : AC-3
Format/Info : Audio Coding 3
Mode extension : CM (complete main)
Format settings, Endianness : Big
Codec ID : A_AC3
Duration : 1h 53mn
Bit rate mode : Constant
Bit rate : 384 Kbps
Channel(s) : 6 channels
Channel positions : Front: L C R, Side: L R, LFE
Sampling rate : 48.0 KHz
Bit depth : 16 bits
Compression mode : Lossy
Stream size : 310 MiB (9%)
Language : Russian
Default : Yes
Forced : No
Menu
00:00:00.000 : en:?????????? 1
00:05:12.680 : en:?????????? 2
00:12:51.800 : en:?????????? 3
00:18:26.960 : en:?????????? 4
00:24:00.320 : en:?????????? 5
00:31:21.160 : en:?????????? 6
00:36:59.680 : en:?????????? 7
00:43:05.760 : en:?????????? 8
00:49:36.800 : en:?????????? 9
00:56:20.320 : en:?????????? 10
01:02:03.720 : en:?????????? 11
01:09:50.080 : en:?????????? 12
01:15:59.440 : en:?????????? 13
01:22:03.040 : en:?????????? 14
01:28:28.640 : en:?????????? 15
01:35:37.680 : en:?????????? 16
01:42:43.320 : en:?????????? 17

Скриншоты

[Цитировать]



Показать сообщения:    

Текущее время: 05-Дек 15:35

Часовой пояс: UTC + 3


Вы не можете начинать темы
Вы не можете отвечать на сообщения
Вы не можете редактировать свои сообщения
Вы не можете удалять свои сообщения
Вы не можете голосовать в опросах
Вы не можете прикреплять файлы к сообщениям
Вы не можете скачивать файлы

!ВНИМАНИЕ!
Сайт не предоставляет электронные версии произведений, а занимается лишь коллекционированием и каталогизацией ссылок, присылаемых и публикуемых на форуме нашими читателями. Если вы являетесь правообладателем какого-либо представленного материала и не желаете, чтобы ссылка на него находилась в нашем каталоге, свяжитесь с нами, и мы незамедлительно удалим ее. Файлы для обмена на трекере предоставлены пользователями сайта, и администрация не несет ответственности за их содержание. Просьба не заливать файлы, защищенные авторскими правами, а также файлы нелегального содержания!