[ Сегодня идет свободное скачивание без начисления Download ]


Статистика раздачи
Нет
 
   
 
Top  
 
 
Код доступа «Кейптаун» / Safe House«No One Is Safe»- Год выпуска: 2012
Страна: США, ЮАР
Производство: Intrepid Pictures, Moonlighting Films South Africa, Relativity Media, Stuber Productions
Жанр: боевик, триллер, криминал, детектив
Режиссер: Дэниэл Эспиноза | Daniel Espinosa
В ролях: Дензел Вашингтон, Райан Рейнольдс, Вера Фармига, Брендан Глисон, Сэм Шепард, Рубен Бладес, Нора Арнезедер, Роберт Патрик, Лиам Каннингэм, Юэль Киннаман, Фарес Фарес, Стефен Райдер
Перевод: Профессиональный (полное дублирование) + Оригинал
Субтитры: softsub (SRT) - Русские, АнглийскиеОписание:
Мэтт мечтает со своей невестой переехать в Париж. Но она не знает, что уже год он работает на ЦРУ.
Легендарный агент ЦРУ Фрост владеет секретной информацией. Но он вышел из-под контроля, и теперь его главное правило: «не доверяй никому — тебя предаст каждый».
Их пути пересекутся в одном из красивейших городов мира — Кейптауне, где каждый должен будет сделать свой выбор..
-
Дата премьеры (мир): 7 февраля 2012
Дата премьеры (РФ): 9 февраля 2012, «UPI»
Релиз на DVD: 14 июня 2012, «Двадцатый Век Фокс СНГ», «Новый Диск»
Релиз на Blu-Ray: 14 июня 2012, «Двадцатый Век Фокс СНГ», «Новый Диск»
-Качество: BDRip - AVC | исх.Safe.House.2012.1080p.BluRay.Remux.AVC.DTS-HD.MA5.1-KRaLiMaRKo
Продолжительность: 01:54:55
Формат: MKV
Видео кодек: H.264
Аудио кодек: AC3
Видео: 1104x460 (2.40:1), 23,976 fps, H.264, 4 440 kbps avg, 0.356 bit/pixel
Аудио #1: 48 kHz, AC3, 3/2 (L,C,R,l,r) + LFE ch, ~448.00 kbps avg | Профессиональный (полное дублирование)
Аудио #2: 48 kHz, AC3, 3/2 (L,C,R,l,r) + LFE ch, ~448.00 kbps avg | Оригинал (Английский)

Media Info

General
Complete name : E:\...\Safe.House.2012.BDRip.x264.DD5.1.Rus.Eng-E76.mkv
Format : Matroska
Format version : Version 2
File size : 4.29 GiB
Duration : 1h 54mn
Overall bit rate : 5 340 Kbps
Movie name : Safe.House.2012.BDRip.x264.DD5.1.Rus.Eng-E76
Encoded date : UTC 2012-06-09 11:29:45
Writing application : mkvmerge v5.2.1 ('A Far Off Place') built on Jan 2 2012 23:21:10
Writing library : libebml v1.2.3 + libmatroska v1.3.0
Video
ID : 1
Format : AVC
Format/Info : Advanced Video Codec
Format profile : [email protected]
Format settings, CABAC : Yes
Format settings, ReFrames : 14 frames
Codec ID : V_MPEG4/ISO/AVC
Duration : 1h 54mn
Bit rate : 4 338 Kbps
Width : 1 104 pixels
Height : 460 pixels
Display aspect ratio : 2.40:1
Frame rate : 23.976 fps
Color space : YUV
Chroma subsampling : 4:2:0
Bit depth : 8 bits
Scan type : Progressive
Bits/(Pixel*Frame) : 0.356
Stream size : 3.48 GiB (81%)
Title : Encode by Enclave76
Writing library : x264 core 125 r2200kMod 999b753
Encoding settings : cabac=1 / ref=14 / deblock=1:-2:-2 / analyse=0x3:0x113 / me=umh / subme=11 / psy=1 / fade_compensate=0.00 / psy_rd=1.10:0.20 / mixed_ref=1 / me_range=64 / chroma_me=1 / trellis=2 / 8x8dct=1 / cqm=0 / deadzone=21,11 / fast_pskip=1 / chroma_qp_offset=-3 / threads=6 / lookahead_threads=1 / sliced_threads=0 / nr=0 / decimate=1 / interlaced=0 / bluray_compat=0 / constrained_intra=0 / bframes=16 / b_pyramid=2 / b_adapt=2 / b_bias=0 / direct=1 / weightb=1 / open_gop=0 / weightp=2 / keyint=240 / keyint_min=23 / scenecut=40 / intra_refresh=0 / rc_lookahead=40 / rc=crf / mbtree=0 / crf=23.0000 / qcomp=0.70 / qpmin=0 / qpmax=69 / qpstep=4 / vbv_maxrate=50000 / vbv_bufsize=62500 / crf_max=0.0 / nal_hrd=none / ip_ratio=1.10 / pb_ratio=1.10 / aq=3:1.20 / zones=157805,165302,q=35
Language : English
Matrix coefficients : BT.709-5, BT.1361, IEC 61966-2-4 709, SMPTE RP177
Audio #1
ID : 2
Format : AC-3
Format/Info : Audio Coding 3
Mode extension : CM (complete main)
Codec ID : A_AC3
Duration : 1h 54mn
Bit rate mode : Constant
Bit rate : 448 Kbps
Channel(s) : 6 channels
Channel positions : Front: L C R, Side: L R, LFE
Sampling rate : 48.0 KHz
Bit depth : 16 bits
Compression mode : Lossy
Stream size : 368 MiB (8%)
Title : Dub
Language : Russian
Audio #2
ID : 3
Format : AC-3
Format/Info : Audio Coding 3
Mode extension : CM (complete main)
Codec ID : A_AC3
Duration : 1h 54mn
Bit rate mode : Constant
Bit rate : 448 Kbps
Channel(s) : 6 channels
Channel positions : Front: L C R, Side: L R, LFE
Sampling rate : 48.0 KHz
Bit depth : 16 bits
Compression mode : Lossy
Stream size : 368 MiB (8%)
Title : Original
Language : English
Text #1
ID : 4
Format : UTF-8
Codec ID : S_TEXT/UTF8
Codec ID/Info : UTF-8 Plain Text
Title : voronine forced
Language : Russian
Text #2
ID : 5
Format : UTF-8
Codec ID : S_TEXT/UTF8
Codec ID/Info : UTF-8 Plain Text
Title : voronine full
Language : Russian
Text #3
ID : 6
Format : UTF-8
Codec ID : S_TEXT/UTF8
Codec ID/Info : UTF-8 Plain Text
Title : BD CEE
Language : Russian
Text #4
ID : 7
Format : UTF-8
Codec ID : S_TEXT/UTF8
Codec ID/Info : UTF-8 Plain Text
Language : English
Menu
00:00:00.000 : en:00:00:00.000
00:04:52.000 : en:00:04:52.000
00:13:44.615 : en:00:13:44.615
00:18:44.457 : en:00:18:44.457
00:23:58.228 : en:00:23:58.228
00:29:26.932 : en:00:29:26.932
00:37:19.988 : en:00:37:19.988
00:41:23.981 : en:00:41:23.981
00:48:29.031 : en:00:48:29.031
00:56:48.780 : en:00:56:48.780
01:00:53.984 : en:01:00:53.984
01:07:02.310 : en:01:07:02.310
01:11:17.982 : en:01:11:17.982
01:16:25.581 : en:01:16:25.581
01:21:23.128 : en:01:21:23.128
01:26:14.002 : en:01:26:14.002
01:29:25.110 : en:01:29:25.110
01:35:34.479 : en:01:35:34.479
01:44:25.217 : en:01:44:25.217
01:49:44.203 : en:01:49:44.203

Скриншоты

[Цитировать]



Показать сообщения:    

Текущее время: 06-Дек 05:56

Часовой пояс: UTC + 3


Вы не можете начинать темы
Вы не можете отвечать на сообщения
Вы не можете редактировать свои сообщения
Вы не можете удалять свои сообщения
Вы не можете голосовать в опросах
Вы не можете прикреплять файлы к сообщениям
Вы не можете скачивать файлы

!ВНИМАНИЕ!
Сайт не предоставляет электронные версии произведений, а занимается лишь коллекционированием и каталогизацией ссылок, присылаемых и публикуемых на форуме нашими читателями. Если вы являетесь правообладателем какого-либо представленного материала и не желаете, чтобы ссылка на него находилась в нашем каталоге, свяжитесь с нами, и мы незамедлительно удалим ее. Файлы для обмена на трекере предоставлены пользователями сайта, и администрация не несет ответственности за их содержание. Просьба не заливать файлы, защищенные авторскими правами, а также файлы нелегального содержания!