[ Сегодня идет свободное скачивание без начисления Download ]


Статистика раздачи
Скачал: [ 3 ]
 
   
 
Top  
 
 
План ограбления / Blue Line (2016) WEB-DLRip - Производство: США / Switzer Entertainment Group
Жанр: боевик, триллер
Режиссер: Джейкоб Куни
Продюсер: Дэвид Гир, Филлип Б. Голдфайн, Тайлер В. Конни
Актеры: Том Сайзмор, Джордан Лэдд, Николь Мур, Кевин Нэш, Тим Льюис, Дэвид Гир, Том ДеНуччи, Линдсэй Ламб, Николь Бардис, Лестер Киф
Описание:
Линдсей – идеальная жена успешного мужчины. По крайней мере, так кажется на первый взгляд. Тихая и скромная, она не перечит мужу, который считает себя победителем и строит грандиозные планы на будущее. С виду их семья идеальна, но мало кто знает, что за ширмой кажущегося благополучия скрывается бездна лжи, непонимания и даже домашнее насилие: за своенравный поступок Линдсей вынуждена расплачиваться физической болью. Муж Линдсей совладелец нескольких проектов. В том числе он владеет долей маленького продуктового магазинчика, в который однажды утром врываются двое в масках и забирают все деньги из кассы. Позже полиция обнаруживает сгоревшую машину, на заднем сиденье которой обнаруживается сумка с наличными. Выходит, что преступники совершили налет не ради денег – но что тогда послужило мотивом?

Продолжительность: 01:12:16
Качество видео: WEB-DLRip
Перевод: Многоголосый закадровый, профессиональный (Официальный звук)
Cубтитры: Отсутствуют
Видео: Xvid, 720x304, ~2230 Kbps
Аудио: AC3, 2 ch, 448 Kbps

Mediainfo:

Общее
Полное имя                               : F:\Plan.ogrableniya.2O16.P.WEBDLRip.NNM-CLUB.avi
Формат                                   : AVI
Формат/Информация                        : Audio Video Interleave
Размер файла                             : 1,36 Гбайт
Продолжительность                        : 1 ч. 12 м.
Общий поток                              : 2687 Кбит/сек
Программа кодирования                    : VirtualDubMod 1.5.10.3 | [url=http://www.virtualdub-fr.org]www.virtualdub-fr.org[/url] || (build 2550/release)
Библиотека кодирования                   : VirtualDubMod build 2550/release
Видео
Идентификатор                            : 0
Формат                                   : MPEG-4 Visual
Профиль формата                          : Advanced Simple@L5
Параметр BVOP формата                    : 2
Параметр QPel формата                    : Нет
Параметр GMC формата                     : Без точки перехода
Параметр матрицы формата                 : Default (MPEG)
Идентификатор кодека                     : XVID
Идентификатор кодека/Подсказка           : XviD
Продолжительность                        : 1 ч. 12 м.
Битрейт                                  : 2230 Кбит/сек
Ширина                                   : 720 пикселей
Высота                                   : 304 пикселя
Соотношение сторон                       : 2,35:1
Частота кадров                           : 25,000 кадров/сек
Цветовое пространство                    : YUV
Субдискретизация насыщенности            : 4:2:0
Битовая глубина                          : 8 бит
Тип развёртки                            : Прогрессивная
Метод сжатия                             : С потерями
Бит/(Пиксели*Кадры)                      : 0.407
Размер потока                            : 1,13 Гбайт (83%)
Библиотека кодирования                   : XviD 1.2.1 (UTC 2008-12-04)
Аудио
Идентификатор                            : 1
Формат                                   : AC-3
Формат/Информация                        : Audio Coding 3
Расширение режима                        : CM (complete main)
Параметр Endianness формата              : Big
Идентификатор кодека                     : 2000
Продолжительность                        : 1 ч. 12 м.
Вид битрейта                             : Постоянный
Битрейт                                  : 448 Кбит/сек
Каналы                                   : 2 канала
Расположение каналов                     : Front: L R
Частота                                  : 48,0 КГц
Битовая глубина                          : 16 бит
Метод сжатия                             : С потерями
Размер потока                            : 232 Мбайт (17%)
Выравнивание                             : Разделение по промежуткам
Продолжительность промежутка             : 40  мс. (1,00 видеокадр)
Время предзагрузки промежутка            : 500  мс.
Скриншоты:

[Цитировать]



Показать сообщения:    

Текущее время: 10-Дек 00:19

Часовой пояс: UTC + 3


Вы не можете начинать темы
Вы не можете отвечать на сообщения
Вы не можете редактировать свои сообщения
Вы не можете удалять свои сообщения
Вы не можете голосовать в опросах
Вы не можете прикреплять файлы к сообщениям
Вы не можете скачивать файлы

!ВНИМАНИЕ!
Сайт не предоставляет электронные версии произведений, а занимается лишь коллекционированием и каталогизацией ссылок, присылаемых и публикуемых на форуме нашими читателями. Если вы являетесь правообладателем какого-либо представленного материала и не желаете, чтобы ссылка на него находилась в нашем каталоге, свяжитесь с нами, и мы незамедлительно удалим ее. Файлы для обмена на трекере предоставлены пользователями сайта, и администрация не несет ответственности за их содержание. Просьба не заливать файлы, защищенные авторскими правами, а также файлы нелегального содержания!