[ Сегодня идет свободное скачивание без начисления Download ]


Статистика раздачи
Качаю: [ 1 ]
 
   
 
Top  
 
 
Конвой / Le convoi (2016) Производство: Франция, Canal+ [fr], Carcharodon, CNC, Cin, Cinfrance 1888, D8, Indie Invest, Orange Studio, Rhne-Alpes Cinma
Жанр: Триллер, криминал
Продолжительность: 01:42:30
Перевод: Авторский (одноголосый закадровый) Антон Карповский
Субтитры: Французские, болгарские
Режиссер: Фредерик Шёндёрфер
Актеры: Бенуа Мажимель, Рем Кериси, Тауфик Жаллаб, Мэхди Белемлих, Эмир Эль Касим, Леон Гарель, Софтан Каммес, Фэд Амара, Ален Фиглаж, Карин Мартан-Превель, Фэнни Гюдеко, Ясин Бен Моусса, Оливье Одибер
Описание:
Фильм о страстях тех, кто вынужден рисковать, об исламской семье, где идут за старшим братом и мечтают о роскошной жизни, прозябая в нищете. Этих людей несёт ветер криминального азарта, он подгоняет их роскошные машины, полные наркотиков, по автострадам через блокпосты и засады. Весь фильм проходит в движении машин. Кто-то едет спереди, чтобы проведать обстановку, кто-то везет основной груз, сзади страхует Алекс, - прожженый профессионал, который хладнокровно подчищает грязную работу своих не слишком ловких друзей.

Релиз от: K.E.N
Качество видео: BDRip-AVC
Видео: AVC, 1024x428 (2.35:1), 24.000 fps, 2 144 Kbps (0.204 bit/pixel)
Аудио #1: AC-3, 48.0 KHz, 6 ch, 448 Kbps, CBR (Russian)
Аудио #2: AC-3, 48.0 KHz, 6 ch, 448 Kbps, CBR (French)
Сэмпл

x264

x264 [info]: profile High, level 4.1
x264 [info]: frame I:979 Avg QP:14.91 size: 59892 PSNR Mean Y:49.49 U:51.49 V:52.06 Avg:50.10 Global:48.87
x264 [info]: frame P:33653 Avg QP:18.18 size: 21975 PSNR Mean Y:47.19 U:49.41 V:50.34 Avg:47.87 Global:46.67
x264 [info]: frame B:112983 Avg QP:20.13 size: 7504 PSNR Mean Y:46.99 U:49.11 V:50.44 Avg:47.67 Global:46.01
x264 [info]: consecutive B-frames: 2.2% 3.0% 9.4% 26.3% 19.7% 27.1% 5.7% 2.7% 1.4% 2.4%

Mediainfo:

Формат : Matroska
Версия формата : Version 2
Размер файла : 2,18 Гбайт
Продолжительность : 1 ч. 42 м.
Общий поток : 3039 Кбит/сек
Дата кодирования : UTC 2016-06-15 12:45:40
Программа кодирования : mkvmerge v5.3.0 ('I could have danced') built on Feb 9 2012 10:38:07
Библиотека кодирования : libebml v1.2.3 + libmatroska v1.3.0
Attachment : Yes
Видео
Идентификатор : 1
Формат : AVC
Формат/Информация : Advanced Video Codec
Профиль формата : High@L4.1
Параметр CABAC формата : Да
Параметр ReFrames формата : 11 кадров
Идентификатор кодека : V_MPEG4/ISO/AVC
Продолжительность : 1 ч. 42 м.
Битрейт : 2144 Кбит/сек
Ширина : 1024 пикселя
Высота : 428 пикселей
Соотношение сторон : 2,40:1
Режим частоты кадров : Постоянный
Частота кадров : 24,000 кадра/сек
Цветовое пространство : YUV
Субдискретизация насыщенности : 4:2:0
Битовая глубина : 8 бит
Тип развёртки : Прогрессивная
Бит/(Пиксели*Кадры) : 0.204
Размер потока : 1,49 Гбайт (69%)
Библиотека кодирования : x264 core 146 r2538 121396c
Настройки программы : cabac=1 / ref=11 / deblock=1:-3:-3 / analyse=0x3:0x133 / me=umh / subme=10 / psy=1 / psy_rd=1.00:0.10 / mixed_ref=1 / me_range=32 / chroma_me=1 / trellis=2 / 8x8dct=1 / cqm=0 / deadzone=21,11 / fast_pskip=0 / chroma_qp_offset=-3 / threads=12 / lookahead_threads=2 / sliced_threads=0 / nr=0 / decimate=0 / interlaced=0 / bluray_compat=0 / constrained_intra=0 / bframes=9 / b_pyramid=2 / b_adapt=2 / b_bias=0 / direct=3 / weightb=1 / open_gop=0 / weightp=2 / keyint=240 / keyint_min=23 / scenecut=40 / intra_refresh=0 / rc_lookahead=40 / rc=2pass / mbtree=0 / bitrate=2144 / ratetol=1.0 / qcomp=0.60 / qpmin=0 / qpmax=69 / qpstep=4 / cplxblur=20.0 / qblur=0.5 / vbv_maxrate=50000 / vbv_bufsize=62500 / nal_hrd=none / filler=0 / ip_ratio=1.40 / pb_ratio=1.30 / aq=2:0.80
Default : Да
Forced : Нет
Аудио #1
Идентификатор : 2
Формат : AC-3
Формат/Информация : Audio Coding 3
Расширение режима : CM (complete main)
Параметр Endianness формата : Big
Идентификатор кодека : A_AC3
Продолжительность : 1 ч. 42 м.
Вид битрейта : Постоянный
Битрейт : 448 Кбит/сек
Каналы : 6 каналов
Расположение каналов : Front: L C R, Side: L R, LFE
Частота : 48,0 КГц
Битовая глубина : 16 бит
Метод сжатия : С потерями
Размер потока : 328 Мбайт (15%)
Заголовок : Авторский (одноголосый закадровый) Антон Карповский
Язык : Russian
Default : Да
Forced : Нет
Аудио #2
Идентификатор : 3
Формат : AC-3
Формат/Информация : Audio Coding 3
Расширение режима : CM (complete main)
Параметр Endianness формата : Big
Идентификатор кодека : A_AC3
Продолжительность : 1 ч. 42 м.
Вид битрейта : Постоянный
Битрейт : 448 Кбит/сек
Каналы : 6 каналов
Расположение каналов : Front: L C R, Side: L R, LFE
Частота : 48,0 КГц
Битовая глубина : 16 бит
Метод сжатия : С потерями
Размер потока : 328 Мбайт (15%)
Язык : French
Default : Нет
Forced : Нет
Текст #1
Идентификатор : 4
Формат : UTF-8
Идентификатор кодека : S_TEXT/UTF8
Идентификатор кодека/Информация : UTF-8 Plain Text
Язык : French
Default : Нет
Forced : Нет
Текст #2
Идентификатор : 5
Формат : UTF-8
Идентификатор кодека : S_TEXT/UTF8
Идентификатор кодека/Информация : UTF-8 Plain Text
Язык : Bulgarian
Default : Нет
Forced : Нет
Меню
00:00:00.000 : en:Chapter 01
00:12:39.791 : en:Chapter 02
00:23:33.208 : en:Chapter 03
00:33:10.666 : en:Chapter 04
00:44:06.000 : en:Chapter 05
00:57:38.375 : en:Chapter 06
01:12:36.708 : en:Chapter 07
01:21:04.541 : en:Chapter 08
01:32:28.416 : en:Chapter 09
Скриншоты:

[Цитировать]



Показать сообщения:    

Текущее время: 11-Дек 09:10

Часовой пояс: UTC + 3


Вы не можете начинать темы
Вы не можете отвечать на сообщения
Вы не можете редактировать свои сообщения
Вы не можете удалять свои сообщения
Вы не можете голосовать в опросах
Вы не можете прикреплять файлы к сообщениям
Вы не можете скачивать файлы

!ВНИМАНИЕ!
Сайт не предоставляет электронные версии произведений, а занимается лишь коллекционированием и каталогизацией ссылок, присылаемых и публикуемых на форуме нашими читателями. Если вы являетесь правообладателем какого-либо представленного материала и не желаете, чтобы ссылка на него находилась в нашем каталоге, свяжитесь с нами, и мы незамедлительно удалим ее. Файлы для обмена на трекере предоставлены пользователями сайта, и администрация не несет ответственности за их содержание. Просьба не заливать файлы, защищенные авторскими правами, а также файлы нелегального содержания!