[ Today is free to download without increasing Download ]

DL-List and Torrent activity
Complete: [ 1 ]
Заклятие 2 / The Conjuring 2 (2016) Страна: США
Производство: New Line Cinema, Evergreen Media, Atomic Monster, RatPac-Dune Entertainment
Год выпуска: 2016
Жанр: ужасы
Продолжительность: 02:06:24
Режиссер: Джеймс Ван
Авторы сценария: Кэри Хэйес, Чад Хэйес, Джеймс Ван
В ролях: Патрик Уилсон, Вера Фармига, Мэдисон Вульф, Фрэнсис О’Коннор, Лорен Эспозито, Саймон МакБерни, Мария Дойл Кеннеди, Саймон Делани
Описание: Супругов занесло в город Энфильд. На этот раз экстрасенсам довелось столкнуться с могущественным демоном, претендующим на звание владыки здешних мест. Скептически настроенные горожане начали подозревать друг друга в происшествиях, в их сердцах поселилась вражда и ненависть...

Перевод: Любительский (многоголосый, закадровый)
Субтитры: нет-Качество: CAMRip
Формат: АVI
Видео кодек: XviD
Аудио кодек: АС3
Видео: 720x304 (2.35:1), 29.970 fps, XviD ~1 350 kbps avg
Аудио: 48.0 kHz, AC3 Dolby Digital, 2/0 (L,R) ch, ~128 kbps
Дата премьеры (мир): 28 мая 2016
Дата премьеры (РФ): 16 июня 2016, «Каро-Премьер»

Media Info

Complete name : ZaklYtie.2.2O16.MVO.TS.14OOMB_KOSHERA.avi
Format : AVI
Format/Info : Audio Video Interleave
File size : 1.37 GiB
Duration : 2h 6mn
Overall bit rate : 1 548 Kbps
Writing application : VirtualDubMod (build 2540/release)
Writing library : VirtualDubMod build 2540/release
ID : 0
Format : MPEG-4 Visual
Format profile : Advanced Simple@L5
Format settings, BVOP : 2
Format settings, QPel : No
Format settings, GMC : No warppoints
Format settings, Matrix : Default (MPEG)
Codec ID : XVID
Codec ID/Hint : XviD
Duration : 2h 6mn
Bit rate : 1 350 Kbps
Width : 720 pixels
Height : 304 pixels
Display aspect ratio : 2.35:1
Frame rate : 29.970 fps
Color space : YUV
Chroma subsampling : 4:2:0
Bit depth : 8 bits
Scan type : Progressive
Compression mode : Lossy
Bits/(Pixel*Frame) : 0.206
Stream size : 1.19 GiB (87%)
Writing library : XviD 1.2.1 (UTC 2008-12-04)
ID : 1
Format : AC-3
Format/Info : Audio Coding 3
Mode extension : CM (complete main)
Format settings, Endianness : Big
Codec ID : 2000
Duration : 2h 6mn
Bit rate mode : Constant
Bit rate : 128 Kbps
Channel(s) : 2 channels
Channel positions : Front: L R
Sampling rate : 48.0 KHz
Compression mode : Lossy
Stream size : 116 MiB (8%)
Alignment : Split accross interleaves



Display posts:    

Current time is: 23-Oct 06:12

All times are UTC + 3

You cannot post new topics in this forum
You cannot reply to topics in this forum
You cannot edit your posts in this forum
You cannot delete your posts in this forum
You cannot vote in polls in this forum
You cannot attach files in this forum
You cannot download files in this forum

The site does not give electronic versions of products, and is engaged only in a collecting and cataloguing of the references sent and published at a forum by our readers. If you are the legal owner of any submitted material and do not wish that the reference to it was in our catalogue, contact us and we shall immediately remove her. Files for an exchange on tracker are given by users of a site, and the administration does not bear the responsibility for their maintenance. The request to not fill in the files protected by copyrights, and also files of the illegal maintenance!