[ Сегодня идет свободное скачивание без начисления Download ]


Статистика раздачи
Скачал: [ 9 ]
 
   
 
Top  
 
 
Иллюзия обмана 2 / Now You See Me 2 (2016) Страна: США
Производство: Lionsgate, Summit Entertainment
Год выпуска: 2016
Жанр: боевик, триллер, комедия
Продолжительность: 01:47:35
Режиссер: Джон М. Чу
Авторы сценария: Эд Соломон, Пит Чиарелли, Боаз Якин
В ролях: Лиззи Каплан, Дэниэл Рэдклифф, Дэйв Франко, Марк Руффало, Джесси Айзенберг, Морган Фриман, Вуди Харрельсон, Майкл Кейн
Описание: «Четыре всадника», команда лучших иллюзионистов мира, снова в сборе! Их «магия» стала еще совершеннее, а враги — опаснее. На сей раз им предстоит спасти свою репутацию и вывести на чистую воду жестокого техномагната…

Перевод: Профессиональный (полное дублирование)
Субтитры: нет-Качество: CAMRip
Формат: АVI
Видео кодек: XviD
Аудио кодек: АС3
Видео: 720x304 (2.35:1), 30.000 fps, XviD ~1 661 kbps avg
Аудио: 48.0 kHz, AC3 Dolby Digital, 2/0 (L,R) ch, ~192 kbps
Дата премьеры (мир): 2 июня 2016
Дата премьеры (РФ): 9 июня 2016, «Централ Партнершип»
ПРИМЕЧАНИЕ: ПРИСУТСТВУЕТ РЕКЛАМА!
Доп. инфа: судя по таймингу продолжительности, возможно фильм не весь

Media Info

General
Complete name : Illuzia.Obmana.2.2O16.D.TS.14OOMB_KOSHERA.avi
Format : AVI
Format/Info : Audio Video Interleave
File size : 1.46 GiB
Duration : 1h 47mn
Overall bit rate : 1 939 Kbps
Writing application : VirtualDubMod 1.5.10.2 (build 2540/release)
Writing library : VirtualDubMod build 2540/release
Video
ID : 0
Format : MPEG-4 Visual
Format profile : Advanced Simple@L5
Format settings, BVOP : 2
Format settings, QPel : No
Format settings, GMC : No warppoints
Format settings, Matrix : Default (MPEG)
Codec ID : XVID
Codec ID/Hint : XviD
Duration : 1h 47mn
Bit rate : 1 661 Kbps
Width : 720 pixels
Height : 304 pixels
Display aspect ratio : 2.35:1
Frame rate : 30.000 fps
Color space : YUV
Chroma subsampling : 4:2:0
Bit depth : 8 bits
Scan type : Progressive
Compression mode : Lossy
Bits/(Pixel*Frame) : 0.253
Stream size : 1.25 GiB (86%)
Writing library : XviD 1.2.1 (UTC 2008-12-04)
Audio
ID : 1
Format : AC-3
Format/Info : Audio Coding 3
Mode extension : CM (complete main)
Format settings, Endianness : Big
Codec ID : 2000
Duration : 1h 47mn
Bit rate mode : Constant
Bit rate : 192 Kbps
Channel(s) : 2 channels
Channel positions : Front: L R
Sampling rate : 48.0 KHz
Compression mode : Lossy
Stream size : 148 MiB (10%)
Alignment : Split accross interleaves

Скриншоты

[Цитировать]

Отличный фильм. Всадники против киберпреступников. Айлы Фишер нет, зато Гарри Поттер и Лиззи Каплан появились. Не хватает шести с половиной минут (фильм 115 минут). Жду качества. :ay:

[Цитировать]



Показать сообщения:    

Текущее время: 09-Дек 20:32

Часовой пояс: UTC + 3


Вы не можете начинать темы
Вы не можете отвечать на сообщения
Вы не можете редактировать свои сообщения
Вы не можете удалять свои сообщения
Вы не можете голосовать в опросах
Вы не можете прикреплять файлы к сообщениям
Вы не можете скачивать файлы

!ВНИМАНИЕ!
Сайт не предоставляет электронные версии произведений, а занимается лишь коллекционированием и каталогизацией ссылок, присылаемых и публикуемых на форуме нашими читателями. Если вы являетесь правообладателем какого-либо представленного материала и не желаете, чтобы ссылка на него находилась в нашем каталоге, свяжитесь с нами, и мы незамедлительно удалим ее. Файлы для обмена на трекере предоставлены пользователями сайта, и администрация не несет ответственности за их содержание. Просьба не заливать файлы, защищенные авторскими правами, а также файлы нелегального содержания!