[ Сегодня идет свободное скачивание без начисления Download ]


Статистика раздачи
Нет
 
   
 
Top  
 
 
Я шагаю по Москве (1963) Информация о фильме
Название: Я шагаю по Москве
Год выхода: 1963
Жанр: Комедия, мелодрама
Режиссер: Георгий Данелия
В ролях: Никита Михалков, Алексей Локтев, Галина Польских, Евгений Стеблов, Любовь Соколова, Ирина Титова, Ирина Мирошниченко, Владимир Басов ст., Ролан Быков, Лев Дуров, Арина Алейникова, Валентина Ананьина, Светлана Беседина, Вероника Васильева, Мария Виноградова, Н. Лихобабина, Евгения Мельникова, Анна Павлова, Алевтина Румянцева, Ирина Скобцева
О фильме:
Володя работает монтажником в Сибири, в Москве он проездом — его небольшой рассказ, опубликованный в журнале «Юность» вызвал интерес у писателя Воронина, пригласившего Володю на важный разговор. В метро он знакомится с Колей — молодым задорным пареньком, возвращающимся с ночной смены. Володя собирается остановиться у своих друзей, но не знает точно, где находится нужный переулок, Коля предлагает его проводить. На Чистопрудном бульваре Володю кусает оставленная без присмотра собака. Коля приглашает Володю домой, чтобы зашить порванные брюки, знакомит его с семьёй. Вскоре оказывается, что знакомые Володи уехали из Москвы на лето, Володя оставляет вещи у Коли и уходит по делам. Оставшись дома один, Коля надеется выспаться, но неожиданно к нему приходит друг Саша, которого забирают в армию. Саша просит Колю пойти с ним в военкомат, чтобы получит отсрочку от призыва в связи с тем, что Саша сегодня женится на Свете. После военкомата друзья идут в ГУМ, чтобы выбрать жениху новый пиджак. Там они встречают Володю, как раз купившего себе новый костюм, и Коля предлагает вместо пиджака купить невесте подарок. Они идут в магазин пластинок, где работает его знакомая Алёна…
Семпл
Страна: СССР
Студия: Мосфильм
Продолжительность: 01:13:25
Перевод: Не требуется
Файл
Кодек: XviD
Качество: HDDVDRip
Видео: 688x288 (2.39:1), 25 fps, XviD build 73 ~1278 kbps avg, 0.26 bit/pixel
Звук: 48 kHz, MPEG Layer 3, 2 ch, ~128.00 kbps avg
Субтитры: Отсутствуют

MI

General
Complete name : D:Изготовление рипаЯ шагаю по Москве_1963-HDDVDRip.by_shkiper.avi
Format : AVI
Format/Info : Audio Video Interleave
File size : 744 MiB
Duration : 1h 13mn
Overall bit rate : 1 417 Kbps
Writing application : VirtualDubMod 1.5.10.3 | www.virtualdub-fr.org || (build 2550/release)
Writing library : VirtualDubMod build 2550/release
Video
ID : 0
Format : MPEG-4 Visual
Format profile : Advanced Simple@L5
Format settings, BVOP : 1
Format settings, QPel : No
Format settings, GMC : No warppoints
Format settings, Matrix : Custom
Codec ID : XVID
Codec ID/Hint : XviD
Duration : 1h 13mn
Bit rate : 1 279 Kbps
Width : 688 pixels
Height : 288 pixels
Display aspect ratio : 2.40:1
Frame rate : 25.000 fps
Color space : YUV
Chroma subsampling : 4:2:0
Bit depth : 8 bits
Scan type : Progressive
Compression mode : Lossy
Bits/(Pixel*Frame) : 0.258
Stream size : 672 MiB (90%)
Writing library : XviD 73
Audio
ID : 1
Format : MPEG Audio
Format version : Version 1
Format profile : Layer 3
Codec ID : 55
Codec ID/Hint : MP3
Duration : 1h 13mn
Bit rate mode : Constant
Bit rate : 128 Kbps
Channel(s) : 2 channels
Sampling rate : 48.0 KHz
Compression mode : Lossy
Stream size : 67.2 MiB (9%)
Alignment : Aligned on interleaves
Interleave, duration : 40 ms (1.00 video frame)
Interleave, preload duratio : 504 ms
Writing library : LAME3.99r
Encoding settings : -m s -V 4 -q 2 -lowpass 17 -b 128

Скриншоты

[Цитировать]



Показать сообщения:    

Текущее время: 07-Дек 15:35

Часовой пояс: UTC + 3


Вы не можете начинать темы
Вы не можете отвечать на сообщения
Вы не можете редактировать свои сообщения
Вы не можете удалять свои сообщения
Вы не можете голосовать в опросах
Вы не можете прикреплять файлы к сообщениям
Вы не можете скачивать файлы

!ВНИМАНИЕ!
Сайт не предоставляет электронные версии произведений, а занимается лишь коллекционированием и каталогизацией ссылок, присылаемых и публикуемых на форуме нашими читателями. Если вы являетесь правообладателем какого-либо представленного материала и не желаете, чтобы ссылка на него находилась в нашем каталоге, свяжитесь с нами, и мы незамедлительно удалим ее. Файлы для обмена на трекере предоставлены пользователями сайта, и администрация не несет ответственности за их содержание. Просьба не заливать файлы, защищенные авторскими правами, а также файлы нелегального содержания!