[ Сегодня идет свободное скачивание без начисления Download ]


Статистика раздачи
Нет
 
   
 
Top  
 
 
Аватар / Avatar
[Расширенная версия / Extended Collector's Cut]
«Это новый мир»- Год выпуска: 2009
Страна: США, Великобритания
Производство: 20th Century Fox Film Corporation, Dune Entertainment, Giant Studios Inc., Ingenious Media
Жанр: фантастика, боевик, драма, приключения
Режиссер: Джеймс Кэмерон | James Cameron
В ролях: Сэм Уортингтон, Зои Салдана, Сигурни Уивер, Стивен Лэнг, Джоэль Мур, Джованни Рибизи, Мишель Родригес, Лас Алонсо, Уэс Студи, Си Си Эйч Паундер
Перевод: Профессиональный (полное дублирование) + Оригинал
Субтитры: softsub (SRT) - Русские (forsed), Русские (forsed), Русские (full), Английские (forsed), Английские (forsed), Английские (full), Английские (SDH)Описание:
Джейк Салли — бывший морской пехотинец, прикованный к инвалидному креслу. Несмотря на немощное тело, Джейк в душе по-прежнему остается воином. Он получает задание совершить путешествие в несколько световых лет к базе землян на планете Пандора, где корпорации добывают редкий минерал, имеющий огромное значение для выхода Земли из энергетического кризиса.
-[imdb]tt0499549[/imdb] [kp]251733[/kp]
Дата премьеры (мир): 10 декабря 2009
Дата премьеры (РФ): 17 декабря 2009, «Двадцатый Век Фокс СНГ»
Дата премьеры (РФ): 26 августа 2010
Релиз на DVD: 22 апреля 2010, «Двадцатый Век Фокс СНГ»
Релиз на Blu-Ray: 29 апреля 2010, «Двадцатый Век Фокс СНГ»
-Качество: BDRip - AVC | исх. Аватар / Avatar (2009) [3-Disc Extended Edition] Blu-ray EUR 1080p AVC DTS 5.1
Продолжительность: 02:58:09
Формат: MKV
Видео кодек: H.264
Аудио кодек: AC3
Видео: 1024x576 (16:9), 23,976 fps, H.264, 3 060 kbps avg, 0.216 bit/pixel
Аудио #1: 48 kHz, AC3, 3/2 (L,C,R,l,r) + LFE ch, ~448.00 kbps avg | Профессиональный (полное дублирование)
Аудио #2: 48 kHz, AC3, 3/2 (L,C,R,l,r) + LFE ch, ~448.00 kbps avg | Оригинал (Английский)

Media Info

Format : Matroska
File size : 4.93 GiB
Duration : 2h 58mn
Overall bit rate : 3 959 Kbps
Movie name : Avatar (2009) BDRip
Encoded date : UTC 2010-11-27 20:39:23
Writing application : mkvmerge v4.4.0 ('Die Wiederkehr') сборка от Oct 31 2010 21:52:48
Writing library : libebml v1.0.0 + libmatroska v1.0.0
Cover : Yes / Yes / Yes
Video
ID : 1
Format : AVC
Format/Info : Advanced Video Codec
Format profile : High@L4.0
Format settings, CABAC : Yes
Format settings, ReFrames : 12 frames
Codec ID : V_MPEG4/ISO/AVC
Duration : 2h 58mn
Bit rate : 3 060 Kbps
Width : 1 024 pixels
Height : 576 pixels
Display aspect ratio : 16:9
Frame rate : 23.976 fps
Color space : YUV
Chroma subsampling : 4:2:0
Bit depth : 8 bits
Scan type : Progressive
Bits/(Pixel*Frame) : 0.216
Stream size : 3.71 GiB (75%)
Writing library : x264 core 108 r1790 8eaf8a6
Encoding settings : cabac=1 / ref=12 / deblock=1:-2:-2 / analyse=0x3:0x133 / me=umh / subme=10 / psy=1 / psy_rd=0.90:0.15 / mixed_ref=1 / me_range=32 / chroma_me=1 / trellis=2 / 8x8dct=1 / cqm=0 / deadzone=21,11 / fast_pskip=0 / chroma_qp_offset=-3 / threads=6 / sliced_threads=0 / nr=0 / decimate=0 / interlaced=0 / constrained_intra=0 / bframes=8 / b_pyramid=2 / b_adapt=2 / b_bias=0 / direct=3 / weightb=1 / open_gop=0 / weightp=2 / keyint=250 / keyint_min=23 / scenecut=40 / intra_refresh=0 / rc=2pass / mbtree=0 / bitrate=3060 / ratetol=1.0 / qcomp=0.70 / qpmin=10 / qpmax=51 / qpstep=4 / cplxblur=20.0 / qblur=0.5 / ip_ratio=1.40 / pb_ratio=1.30 / aq=1:0.90
Language : English
Audio #1
ID : 2
Format : AC-3
Format/Info : Audio Coding 3
Mode extension : CM (complete main)
Codec ID : A_AC3
Duration : 2h 58mn
Bit rate mode : Constant
Bit rate : 448 Kbps
Channel(s) : 6 channels
Channel positions : Front: L C R, Side: L R, LFE
Sampling rate : 48.0 KHz
Bit depth : 16 bits
Stream size : 571 MiB (11%)
Title : Dub
Language : Russian
Audio #2
ID : 3
Format : AC-3
Format/Info : Audio Coding 3
Mode extension : CM (complete main)
Codec ID : A_AC3
Duration : 2h 58mn
Bit rate mode : Constant
Bit rate : 448 Kbps
Channel(s) : 6 channels
Channel positions : Front: L C R, Side: L R, LFE
Sampling rate : 48.0 KHz
Bit depth : 16 bits
Stream size : 571 MiB (11%)
Title : Original
Language : English
Text #1
ID : 4
Format : VobSub
Muxing mode : zlib
Codec ID : S_VOBSUB
Codec ID/Info : The same subtitle format used on DVDs
Title : Forced Styled, VobSub
Language : Russian
Text #2
ID : 5
Format : ASS
Codec ID : S_TEXT/ASS
Codec ID/Info : Advanced Sub Station Alpha
Title : Forced Styled, ASS
Language : Russian
Text #3
ID : 6
Format : ASS
Codec ID : S_TEXT/ASS
Codec ID/Info : Advanced Sub Station Alpha
Title : Full Styled, ASS
Text #4
ID : 7
Format : VobSub
Muxing mode : zlib
Codec ID : S_VOBSUB
Codec ID/Info : The same subtitle format used on DVDs
Title : Forced Styled, VobSub
Language : English
Text #5
ID : 8
Format : ASS
Codec ID : S_TEXT/ASS
Codec ID/Info : Advanced Sub Station Alpha
Title : Forced Styled, ASS
Language : English
Text #6
ID : 9
Format : ASS
Codec ID : S_TEXT/ASS
Codec ID/Info : Advanced Sub Station Alpha
Title : Full Styled, ASS
Language : English
Text #7
ID : 10
Format : UTF-8
Codec ID : S_TEXT/UTF8
Codec ID/Info : UTF-8 Plain Text
Title : Full SDH, SRT
Language : English
Menu
00:00:00.000 : :1. Lost Soul
00:05:25.575 : :2. A New World
00:10:12.278 : :3. You Are Not In Kansas Anymore
00:11:47.915 : :4. "This Is Your Avatar Now, Jake ."
00:15:59.208 : :5. "This Is Why We're Here..."
00:17:54.782 : :6. First Awakening
00:23:54.891 : :7. Colonel Quaritch
00:27:54.547 : :8. First Sortie
00:30:27.617 : :9. Abandoned Schoolhouse
00:32:27.904 : :10. Thanator Chase
00:37:16.525 : :11. A Sign
00:39:08.053 : :12. Viperwolves
00:41:18.475 : :13. Neytiri
00:49:16.912 : :14. The Omaticaya Clan
00:55:42.213 : :15. Cover Report
01:01:09.415 : :16. The Hallelujah Mountains
01:07:03.227 : :17. Learn Fast Or Die
01:11:50.222 : :18. A Mother's Pain
01:15:53.799 : :19. Banshee Rookery
01:22:38.119 : :20. First Flight
01:26:12.709 : :21. Clan Hunt
01:27:42.298 : :22. Last Shadow
01:33:00.407 : :23. A Son Of the Omaticaya
01:37:36.892 : :24. Willow Glade Destruction
01:44:15.290 : :25. Conflict Escalation
01:50:02.595 : :26. "You Will Never Be One Of The People!"
01:51:53.581 : :27. Assault On Hometree
01:58:30.895 : :28. Aftermath
02:02:13.284 : :29. Escape From Hell's Gate
02:07:51.663 : :30. There's Something We Gotta Do..."
02:09:30.554 : :31. Toruk Macto
02:12:36.615 : :32. "She's Real"
02:16:03.363 : :33. Recruiting The Clans
02:19:31.654 : :34. Preamble To Battle
02:23:59.630 : :35. Battle For Pandora
02:30:05.079 : :36. Fall Of The Heroes
02:33:56.852 : :37. Eywa
02:40:02.259 : :38. Quartich Fight
02:45:33.214 : :39. "I See You"
02:46:48.498 : :40. My Brother
02:48:56.793 : :41. Transformation
02:51:32.073 : :42. End Credits

Скриншоты

[Цитировать]

какой то косяк с IMDb рейтингом=) не отображается

[Цитировать]

6528какой то косяк с IMDb рейтингом=) не отображается
[imdb]tt0499549[/imdb] [kp]251733[/kp]
[imdb]tt0499549[/imdb] [kp]251733[/kp]

[Цитировать]

JOKER, да хотел чтоб та картиночка рейтинга отображалась=) красивее
Добавлено спустя 5 минут 12 секунд:
Summer Ok=) хотя та лучше была=)))

Комментарий от DarkHeart


Исправил.

[Цитировать]

6531JOKER, да хотел чтоб та картиночка рейтинга отображалась=) красивее
[url=http://imdb.snick.ru/movie/tt0499549][img]http://imdb.snick.ru/ratefor/02/tt0499549.png[/img][/url]
-
[url=http://imdb.snick.ru/movie/tt0499549][img]http://imdb.snick.ru/ratefor/01/tt0499549.png[/img][/url]

[Цитировать]

6534
6531JOKER, да хотел чтоб та картиночка рейтинга отображалась=) красивее
[url=http://imdb.snick.ru/movie/tt0499549][img]http://imdb.snick.ru/ratefor/02/tt0499549.png[/img][/url]
-
[url=http://imdb.snick.ru/movie/tt0499549][img]http://imdb.snick.ru/ratefor/01/tt0499549.png[/img][/url]
да не JOKER всё равно не то=)))

[Цитировать]



Показать сообщения:    

Текущее время: 30-Апр 22:48

Часовой пояс: UTC + 6


Вы не можете начинать темы
Вы не можете отвечать на сообщения
Вы не можете редактировать свои сообщения
Вы не можете удалять свои сообщения
Вы не можете голосовать в опросах
Вы не можете прикреплять файлы к сообщениям
Вы не можете скачивать файлы

!ВНИМАНИЕ!
Сайт не предоставляет электронные версии произведений, а занимается лишь коллекционированием и каталогизацией ссылок, присылаемых и публикуемых на форуме нашими читателями. Если вы являетесь правообладателем какого-либо представленного материала и не желаете, чтобы ссылка на него находилась в нашем каталоге, свяжитесь с нами, и мы незамедлительно удалим ее. Файлы для обмена на трекере предоставлены пользователями сайта, и администрация не несет ответственности за их содержание. Просьба не заливать файлы, защищенные авторскими правами, а также файлы нелегального содержания!