[ Сегодня идет свободное скачивание без начисления Download ]


Статистика раздачи
Скачал: [ 1 ]
 
   
 
Top  
 
 
Белоснежка и Охотник 2 / The Huntsman: Winter's War Информация о фильме
Название: Белоснежка и Охотник 2
Оригинальное название: The Huntsman: Winter's War
Год выхода: 2016
Жанр: фэнтези, боевик, драма, приключения
Режиссер: Седрик Николя-Троян
В ролях: Крис Хемсворт, Шарлиз Терон, Джессика Честейн, Эмили Блант, Ник Фрост, Роб Брайдон, Шеридан Смит, Александра Роуч, Сопе Дирису, Сэм Хэзелдайн
О фильме: Когда любовь уходит, сердце прекрасной девы обращается в лед. И даже сотни королевств не смогут сдержать поступь ее несметного воинства. Лишь Охотник не ведает страха. Сквозь проклятый лес он идет навстречу своей судьбе.

Выпущено: США / Roth Films, Universal Pictures
Продолжительность: 01:53:38
Озвучивание: Дублированное [iTunes]
Файл
Формат: MKV
Качество: WEB-DL 720p
Видео: MPEG-4 AVC, 3987 kb/s, 1280x532
Аудио: AC3, 384 kb/s (6 ch)

MI

Format : Matroska
Format version : Version 2
File size : 3.55 GiB
Duration : 1h 53mn
Overall bit rate : 4 460 Kbps
Encoded date : UTC 2016-06-15 19:49:44
Writing application : mkvmerge v7.8.0 ('River Man') 32bit built on Apr 3 2015 12:11:22
Writing library : libebml v1.3.1 + libmatroska v1.4.2
Video
ID : 1
Format : AVC
Format/Info : Advanced Video Codec
Format profile : Main@L3.1
Format settings, CABAC : No
Format settings, ReFrames : 2 frames
Codec ID : V_MPEG4/ISO/AVC
Duration : 1h 53mn
Bit rate : 3 987 Kbps
Width : 1 280 pixels
Height : 532 pixels
Display aspect ratio : 2.40:1
Frame rate mode : Constant
Frame rate : 23.976 fps
Color space : YUV
Chroma subsampling : 4:2:0
Bit depth : 8 bits
Scan type : Progressive
Bits/(Pixel*Frame) : 0.244
Stream size : 3.17 GiB (89%)
Language : English
Default : Yes
Forced : No
Color range : Limited
Color primaries : BT.709
Transfer characteristics : BT.709
Matrix coefficients : BT.709
Audio
ID : 2
Format : AC-3
Format/Info : Audio Coding 3
Mode extension : CM (complete main)
Format settings, Endianness : Big
Codec ID : A_AC3
Duration : 1h 53mn
Bit rate mode : Constant
Bit rate : 384 Kbps
Channel(s) : 6 channels
Channel positions : Front: L C R, Side: L R, LFE
Sampling rate : 48.0 KHz
Bit depth : 16 bits
Compression mode : Lossy
Stream size : 313 MiB (9%)
Language : Russian
Default : Yes
Forced : No
Menu
00:00:00.000 : en:глава 1
00:06:28.000 : en:глава 2
00:09:28.000 : en:глава 3
00:15:05.000 : en:глава 4
00:21:35.000 : en:глава 5
00:26:54.000 : en:глава 6
00:32:36.000 : en:глава 7
00:36:53.000 : en:глава 8
00:42:16.000 : en:глава 9
00:47:29.000 : en:глава 10
00:54:39.000 : en:глава 11
00:59:28.000 : en:глава 12
01:06:20.000 : en:глава 13
01:10:22.000 : en:глава 14
01:17:47.000 : en:глава 15
01:23:19.000 : en:глава 16
01:28:08.000 : en:глава 17
01:33:42.000 : en:глава 18
01:42:22.000 : en:глава 19
01:44:28.000 : en:глава 20

Скриншоты

[Цитировать]



Показать сообщения:    

Текущее время: 07-Дек 19:25

Часовой пояс: UTC + 3


Вы не можете начинать темы
Вы не можете отвечать на сообщения
Вы не можете редактировать свои сообщения
Вы не можете удалять свои сообщения
Вы не можете голосовать в опросах
Вы не можете прикреплять файлы к сообщениям
Вы не можете скачивать файлы

!ВНИМАНИЕ!
Сайт не предоставляет электронные версии произведений, а занимается лишь коллекционированием и каталогизацией ссылок, присылаемых и публикуемых на форуме нашими читателями. Если вы являетесь правообладателем какого-либо представленного материала и не желаете, чтобы ссылка на него находилась в нашем каталоге, свяжитесь с нами, и мы незамедлительно удалим ее. Файлы для обмена на трекере предоставлены пользователями сайта, и администрация не несет ответственности за их содержание. Просьба не заливать файлы, защищенные авторскими правами, а также файлы нелегального содержания!