[ Сегодня идет свободное скачивание без начисления Download ]


Статистика раздачи
Нет
 
   
 
Top  
 
 
- Энджи Трайбека / Angie Tribeca - Производство: США
Жанр: Комедия, Детектив
Режиссер: Стив Карелл, Марта Кулидж, Ричи Кин
Актеры: Рашида Джонс, Джер Бернс, Деон Коул, Хэйз МакАртур, Эндри Вермелен, Андреас Виганд, Бретт Гилберт, Тони Френч, Гарри Йи, Чиди Аджуфо
Описание:
Нелегко быть девушкой, а особенно если ты детектив местного «элитного» подразделения полиции, которое раскрывает не менее «страшные» преступления. Еще тяжелей становится, когда узнаешь, кто достался тебе в напарники. Эксцентричный и необузданный Джой Гейл, вкупе со строгим, но довольно справедливым лейтенантом, доставляют не меньше проблем чем пресловутые преступники. Небезызвестное зло не дремлет, и сотрудникам придется объединиться для подержания городского порядка. Им предстоит раскрыть множество правонарушений, и побывать в бесчисленных передрягах, прежде чем они станут командой. Сложив вместе полное отсутствие логики, безумные предположения, и невероятные идеи, друзья найдут способ изловить беспечного шантажиста, орудующего на шумных улицах Лос-Анджелеса. Ведь Энджи никогда не сдается!

Релиз от: IDEAFILM
Продолжительность: ~ 00:30:00
Качество видео: WEB-DL
Перевод: Многоголосый закадровый, профессиональный - IDEAFILM
Реклама: присутствуют аудио, видео вставки рекламы.
Видео: AVC/H.264, 1280x720, ~4000 Кбит/сек
Аудио: AC3, 6 ch, 384 Кбит/сек - Многоголосый закадровый
Аудио: AC3, 6 ch, 384 Кбит/сек - оригинал

Mediainfo:

Общее
Уникальный идентификатор                 : 200610918957288719386300003653367966826 (0x96EC41F2038BDFF4B09EA4B446792C6A)
Полное имя                               : H:\Сериалы\Энджи Трайбека (2016) 2 сезон\Angie.Tribeca.S02.WEB-DL.720p\Angie.Tribeca.S02E01.WEB-DL.720p-IDEAFILM.mkv
Формат                                   : Matroska
Версия формата                           : Version 4 / Version 2
Размер файла                             : 701 Мбайт
Продолжительность                        : 22 м.
Режим общего битрейта                    : Переменный
Общий поток                              : 4437 Кбит/сек
Дата кодирования                         : UTC 2016-06-09 21:44:42
Программа кодирования                    : mkvmerge v8.6.1 ("Flying") 64bit
Библиотека кодирования                   : libebml v1.3.3 + libmatroska v1.4.4
Видео
Идентификатор                            : 1
Формат                                   : AVC
Формат/Информация                        : Advanced Video Codec
Профиль формата                          : [url=mailto:[url=/cdn-cgi/l/email-protection][email protected][/url]][url=/cdn-cgi/l/email-protection][email protected][/url][/url]
Параметр CABAC формата                   : Да
Параметр ReFrames формата                : 3 кадра
Идентификатор кодека                     : V_MPEG4/ISO/AVC
Продолжительность                        : 22 м.
Вид битрейта                             : Переменный
Битрейт                                  : 3676 Кбит/сек
Максимальный битрейт                     : 4000 Кбит/сек
Ширина                                   : 1280 пикселей
Высота                                   : 720 пикселей
Соотношение сторон                       : 16:9
Режим частоты кадров                     : Постоянный
Частота кадров                           : 23,976 (23976/1000) кадра/сек
Частота кадров в оригинале               : 23,976 (24000/1001) кадра/сек
Стандарт вещания                         : NTSC
Цветовое пространство                    : YUV
Субдискретизация насыщенности            : 4:2:0
Битовая глубина                          : 8 бит
Тип развёртки                            : Прогрессивная
Бит/(Пиксели*Кадры)                      : 0.166
Размер потока                            : 581 Мбайт (83%)
Язык                                     : English
Default                                  : Да
Forced                                   : Нет
Цветовой диапазон                        : Limited
Основные цвета                           : BT.709
Характеристики трансфера                 : BT.709
Коэффициенты матрицы                     : BT.709
Аудио #1
Идентификатор                            : 2
Формат                                   : AC-3
Формат/Информация                        : Audio Coding 3
Расширение режима                        : CM (complete main)
Параметр Endianness формата              : Big
Идентификатор кодека                     : A_AC3
Продолжительность                        : 22 м.
Вид битрейта                             : Постоянный
Битрейт                                  : 384 Кбит/сек
Каналы                                   : 6 каналов
Расположение каналов                     : Front: L C R, Side: L R, LFE
Частота                                  : 48,0 КГц
Частота кадров                           : 31,250 кадров/сек (1536 spf)
Метод сжатия                             : С потерями
Размер потока                            : 60,6 Мбайт (9%)
Заголовок                                : IDEAFILM
Язык                                     : Russian
Default                                  : Да
Forced                                   : Нет
Аудио #2
Идентификатор                            : 3
Формат                                   : AC-3
Формат/Информация                        : Audio Coding 3
Расширение режима                        : CM (complete main)
Параметр Endianness формата              : Big
Идентификатор кодека                     : A_AC3
Продолжительность                        : 21 м.
Вид битрейта                             : Постоянный
Битрейт                                  : 384 Кбит/сек
Каналы                                   : 6 каналов
Расположение каналов                     : Front: L C R, Side: L R, LFE
Частота                                  : 48,0 КГц
Частота кадров                           : 31,250 кадров/сек (1536 spf)
Метод сжатия                             : С потерями
Задержка видео                           : 32 с.
Размер потока                            : 59,2 Мбайт (8%)
Язык                                     : English
Default                                  : Нет
Forced                                   : Нет

Раздача ведётся путём добавления новых серий

Раздача ведётся путём добавления новых серий; при каждом добавлении создаётся новый торрент. Чтобы начать докачку новой серии, пользователям необходимо сделать следующее:
(1) остановить скачивание,
(2) удалить старый торрент у себя из клиента (старые серии удалять не надо),
(3) скачать новый торрент и запустить его у себя в клиенте вместо старого, при этом указать клиенту путь в старую папку куда и должно происходить скачивание новых серий.
Ваш клиент при этом должен произвести хеширование (проверку) старой папки (если не производит сам - помогите ему сделать это), и будет докачивать только те серии которых у вас ещё нет. Старые серии при этом не удаляются, а продолжают раздаваться!
Eсли вы уже удалили старые серии, то предотвратить повторную закачку старых серий можно, отжав галочку в соответствующих местах при запуске нового торрента. По возможности, желательно не удалять старые серии как можно дольше чтобы релизёр не столько продолжал раздавать старые серии, а смог сконцентрироваться на новых.
Скриншоты:

[Цитировать]



Показать сообщения:    

Текущее время: 19-Фев 19:43

Часовой пояс: UTC + 3


Вы не можете начинать темы
Вы не можете отвечать на сообщения
Вы не можете редактировать свои сообщения
Вы не можете удалять свои сообщения
Вы не можете голосовать в опросах
Вы не можете прикреплять файлы к сообщениям
Вы не можете скачивать файлы

!ВНИМАНИЕ!
Сайт не предоставляет электронные версии произведений, а занимается лишь коллекционированием и каталогизацией ссылок, присылаемых и публикуемых на форуме нашими читателями. Если вы являетесь правообладателем какого-либо представленного материала и не желаете, чтобы ссылка на него находилась в нашем каталоге, свяжитесь с нами, и мы незамедлительно удалим ее. Файлы для обмена на трекере предоставлены пользователями сайта, и администрация не несет ответственности за их содержание. Просьба не заливать файлы, защищенные авторскими правами, а также файлы нелегального содержания!