[ Сегодня идет свободное скачивание без начисления Download ]


Статистика раздачи
Скачал: [ 2 ]
 
   
 
Top  
 
 
Завещание Ленина Страна: Россия
Производство: Эталон-фильм
Жанр: драма
Год выпуска: 2007
Продолжительность: 12 серий ~ по 45 мин.
Перевод: не требуется
Субтитры: нет
Оригинальная аудиодорожка: русский
Режиссер: Николай Досталь
В ролях:
Игорь Класс, Владимир Капустин, Елена Руфанова, Инга Оболдина, Владимир Конкин, Александр Трофимов, Ирина Муравьёва, Марк Наассан, Данила Козловский, Надежда Аникеева, Роман Мадянов, Алиса Хазанова, Тимофей Трибунцев, Михаил Крылов, Сергей Перелыгин, Елена Лядова, Виктор Бегунов, Эдуард Федашко, Николай Мачульский, Максим Гудков, Анна Рудь, Александр Обласов, Феликс Антипов, Александр Строев (II), Александр Яценко, Юрис Горнавс, Александр Коршунов, Дмитрий Мельников, Сергей Ануфриев, Алексей Шевченков, Сергей Кагаков, Дмитрий Тихонов, Сергей Оленберг, Вячеслав Ковалёв, Владимир Устюгов, Михаил Петухов, Валерий Золотухин, Ирина Розанова...
Полный список актёров
Описание:
В основе сюжета - "Колымские рассказы" Варлама Шаламова
Автор "Колымских рассказов" и многих других произведений 17 лет провел в страшных лагерях ГУЛАГа на Колыме. Срок, который получил Варлам Тихонович в 1929 году, был за распространение письма Ленина съезду, в котором тот критикует Сталина. В наше время это письмо называют "завещанием Ленина"…- -Исходник: 3хDVD9 R5
Качество видео: DVDRip
Формат видео: AVI
Видео: 688х384 (16:9), 25 fps, XviD ~ 1549 kbps avg, 0.235 bit/pixel
Аудио: 48 kHz, Dolby Digital AC3 5.1, 448 kbps

MediaInfo

Общее
Полное имя : Zaveshanie.Lenina.1955.DVDRip_[New-team]_by_AVP_Studio4.avi
Формат : AVI
Формат/Информация : Audio Video Interleave
Размер файла : 634 Мбайт
Продолжительность : 44 м.
Общий поток : 2007 Кбит/сек
Программа кодирования : VirtualDubMod 1.5.10.3 | www.virtualdub-fr.org || (build 2550/release)
Библиотека кодирования : VirtualDubMod build 2550/release
Видео
Идентификатор : 0
Формат : MPEG-4 Visual
Профиль формата : Advanced [email protected]
Параметр BVOP формата : 1
Параметр QPel формата : Нет
Параметр GMC формата : Без точки перехода
Параметр матрицы формата : Выборочная
Идентификатор кодека : XVID
Идентификатор кодека/Подсказка : XviD
Продолжительность : 44 м.
Битрейт : 1549 Кбит/сек
Ширина : 688 пикселей
Высота : 384 пикселя
Соотношение сторон : 16:9
Частота кадров : 25,000 кадров/сек
Цветовое пространство : YUV
Субдискретизация насыщенности : 4:2:0
Битовая глубина : 8 бит
Тип развёртки : Прогрессивная
Метод сжатия : С потерями
Бит/(Пиксели*Кадры) : 0.235
Размер потока : 489 Мбайт (77%)
Библиотека кодирования : XviD 1.2.1 (UTC 2008-12-04)
Аудио
Идентификатор : 1
Формат : AC-3
Формат/Информация : Audio Coding 3
Расширение режима : CM (complete main)
Параметр Endianness формата : Big
Идентификатор кодека : 2000
Продолжительность : 44 м.
Вид битрейта : Постоянный
Битрейт : 448 Кбит/сек
Каналы : 6 каналов
Расположение каналов : Front: L C R, Side: L R, LFE
Частота : 48,0 КГц
Частота кадров : 31,250 кадров/сек (1536 spf)
Метод сжатия : С потерями
Размер потока : 141 Мбайт (22%)
Выравнивание : Разделение по промежуткам
Продолжительность промежутка : 40 мс. (1,00 видеокадр)
Время предзагрузки промежутка : 500 мс

Скриншоты

[Цитировать]



Показать сообщения:    

Текущее время: 05-Дек 03:30

Часовой пояс: UTC + 3


Вы не можете начинать темы
Вы не можете отвечать на сообщения
Вы не можете редактировать свои сообщения
Вы не можете удалять свои сообщения
Вы не можете голосовать в опросах
Вы не можете прикреплять файлы к сообщениям
Вы не можете скачивать файлы

!ВНИМАНИЕ!
Сайт не предоставляет электронные версии произведений, а занимается лишь коллекционированием и каталогизацией ссылок, присылаемых и публикуемых на форуме нашими читателями. Если вы являетесь правообладателем какого-либо представленного материала и не желаете, чтобы ссылка на него находилась в нашем каталоге, свяжитесь с нами, и мы незамедлительно удалим ее. Файлы для обмена на трекере предоставлены пользователями сайта, и администрация не несет ответственности за их содержание. Просьба не заливать файлы, защищенные авторскими правами, а также файлы нелегального содержания!