[ Сегодня идет свободное скачивание без начисления Download ]


Статистика раздачи
Скачал: [ 2 ]
 
   
 
Top  
 
 
Кидала в Вегасе / Du xia da zhan La Si Wei Jia Si (1999) Название: Кидала в Вегасе
Оригинальное название: Du xia da zhan La Si Wei Jia Si
Год выхода: 1999
Страна: Гонконг
Студия: China Star Entertainment, Win's Entertainment Ltd., Jing's Production
Продолжительность: 01:37:25
Жанр: комедия, ...
Режиссер: Вон Цзин
В ролях: Ник Чун, Энди Лау, Джевел Ли, Вон Цзин, Пак-чун Чан, Ник Чун Ка-фай, Джевел Ли, Келли Лин, Алекс Мэн, Йин Нэм, Фэнг Ю, ...
Перевод: Авторский (одноголосый, закадровый) Дольский Андрей Игоревич
О фильме: Король и его новый подручный Нат вынуждены отправиться в Лас-Вегас, чтобы вернуть в Гонконг вора, укравшего у Китая четыре миллиарда долларов — только так они смогут выручить Дракона, за которого мафия требует выкуп в 30 миллионов. Там герои знакомятся с двумя очаровательными девушками, и с их помощью заманить беглеца в ловушку не составляет труда, однако вот довезти его до Гонконга оказывается задачей не из простых…

Кодек: x264
Качество: BDRip 1080p
Видео: 1920x804, 13000 kbps, 24 fps
Аудио #1: AC-3, 6 ch, 640 kbps (Rus) - AVO Дольский Андрей Игоревич
Аудио #2: AC-3, 6 ch, 640 kbps (Chi)
Субтитры: Английские

Дополнительная информация

За исходник спасибо - vedigo
За авторский перевод благодарим непосредственно Андрея Дольского и пользователей Юрай, vedigo
Голос Дольского умышленно изменён - мне так больше нравится.
А если серьёзно, то на мои уши, в нетронутом виде он подавляет оригинал и становится проблематично выдержать подходящий балланс между оригиналом и озвучкой.

MediaInfo

x264 [info]: frame I:870 Avg QP:16.12 size:206307
x264 [info]: frame P:30222 Avg QP:18.24 size:119006
x264 [info]: frame B:109195 Avg QP:20.27 size: 52374
x264 [info]: consecutive B-frames: 1.6% 2.5% 6.8% 21.5% 15.4% 47.2% 4.2% 0.3% 0.1% 0.1% 0.1% 0.0% 0.1%
Общее
Уникальный идентификатор : 200624647747436684458224281554370713795 (0x96EEE6D3B500149EBB82A751E25858C3)
Полное имя : Кидала в Вегасе (Du xia da zhan La Si Wei Jia Si) 1999 BDRip 1080p.mkv
Формат : Matroska
Версия формата : Version 2
Размер файла : 9,72 Гбайт
Продолжительность : 1 ч. 37 м.
Общий поток : 14,3 Мбит/сек
Дата кодирования : UTC 2016-06-15 04:06:44
Программа кодирования : mkvmerge v4.0.0 ('The Stars were mine') сборка от Jun 6 2010 16:18:42
Библиотека кодирования : libebml v1.0.0 + libmatroska v1.0.0
Видео
Идентификатор : 1
Формат : AVC
Формат/Информация : Advanced Video Codec
Профиль формата : [email protected]
Параметр CABAC формата : Да
Параметр ReFrames формата : 4 кадра
Идентификатор кодека : V_MPEG4/ISO/AVC
Продолжительность : 1 ч. 37 м.
Битрейт : 13,0 Мбит/сек
Ширина : 1920 пикселей
Высота : 804 пикселя
Соотношение сторон : 2,40:1
Режим частоты кадров : Постоянный
Частота кадров : 24,000 кадра/сек
Цветовое пространство : YUV
Субдискретизация насыщенности : 4:2:0
Битовая глубина : 8 бит
Тип развёртки : Прогрессивная
Бит/(Пиксели*Кадры) : 0.351
Размер потока : 8,65 Гбайт (89%)
Библиотека кодирования : x264 core 146 r2538 121396c
Настройки программы : cabac=1 / ref=4 / deblock=1:-3:-3 / analyse=0x3:0x133 / me=umh / subme=11 / psy=1 / psy_rd=1.00:0.00 / mixed_ref=1 / me_range=32 / chroma_me=1 / trellis=2 / 8x8dct=1 / cqm=0 / deadzone=21,11 / fast_pskip=0 / chroma_qp_offset=-2 / threads=12 / lookahead_threads=2 / sliced_threads=0 / nr=0 / decimate=0 / interlaced=0 / bluray_compat=0 / constrained_intra=0 / bframes=12 / b_pyramid=2 / b_adapt=2 / b_bias=0 / direct=3 / weightb=1 / open_gop=0 / weightp=2 / keyint=240 / keyint_min=24 / scenecut=40 / intra_refresh=0 / rc_lookahead=60 / rc=2pass / mbtree=0 / bitrate=13000 / ratetol=1.0 / qcomp=0.60 / qpmin=0 / qpmax=69 / qpstep=4 / cplxblur=20.0 / qblur=0.5 / vbv_maxrate=50000 / vbv_bufsize=62500 / nal_hrd=none / filler=0 / ip_ratio=1.40 / pb_ratio=1.30 / aq=1:0.80
Язык : Chinese
Default : Нет
Forced : Нет
Аудио #1
Идентификатор : 2
Формат : AC-3
Формат/Информация : Audio Coding 3
Расширение режима : CM (complete main)
Параметр Endianness формата : Big
Идентификатор кодека : A_AC3
Продолжительность : 1 ч. 37 м.
Вид битрейта : Постоянный
Битрейт : 640 Кбит/сек
Каналы : 6 каналов
Расположение каналов : Front: L C R, Side: L R, LFE
Частота : 48,0 КГц
Частота кадров : 31,250 кадров/сек (1536 spf)
Метод сжатия : С потерями
Размер потока : 446 Мбайт (4%)
Заголовок : AVO Дольский Андрей Игоревич
Язык : Russian
Default : Нет
Forced : Нет
Аудио #2
Идентификатор : 3
Формат : AC-3
Формат/Информация : Audio Coding 3
Расширение режима : CM (complete main)
Параметр Endianness формата : Big
Идентификатор кодека : A_AC3
Продолжительность : 1 ч. 37 м.
Вид битрейта : Постоянный
Битрейт : 640 Кбит/сек
Каналы : 6 каналов
Расположение каналов : Front: L C R, Side: L R, LFE
Частота : 48,0 КГц
Частота кадров : 31,250 кадров/сек (1536 spf)
Метод сжатия : С потерями
Размер потока : 446 Мбайт (4%)
Язык : Chinese
Default : Нет
Forced : Нет
Текст
Идентификатор : 4
Формат : UTF-8
Идентификатор кодека : S_TEXT/UTF8
Идентификатор кодека/Информация : UTF-8 Plain Text
Язык : English
Default : Нет
Forced : Нет

Скриншоты


[Цитировать]



Показать сообщения:    

Текущее время: 04-Дек 19:24

Часовой пояс: UTC + 3


Вы не можете начинать темы
Вы не можете отвечать на сообщения
Вы не можете редактировать свои сообщения
Вы не можете удалять свои сообщения
Вы не можете голосовать в опросах
Вы не можете прикреплять файлы к сообщениям
Вы не можете скачивать файлы

!ВНИМАНИЕ!
Сайт не предоставляет электронные версии произведений, а занимается лишь коллекционированием и каталогизацией ссылок, присылаемых и публикуемых на форуме нашими читателями. Если вы являетесь правообладателем какого-либо представленного материала и не желаете, чтобы ссылка на него находилась в нашем каталоге, свяжитесь с нами, и мы незамедлительно удалим ее. Файлы для обмена на трекере предоставлены пользователями сайта, и администрация не несет ответственности за их содержание. Просьба не заливать файлы, защищенные авторскими правами, а также файлы нелегального содержания!