[ Сегодня идет свободное скачивание без начисления Download ]


Статистика раздачи
Скачал: [ 1 ]
 
   
 
Top  
 
 
Сомния / Before I Wake (2016) DVDRip [Звук с TS] «Кошмары станут реальностью»- Производство: США, Demarest Films, Intrepid Pictures, MICA Entertainment
Жанр: Ужасы, фэнтези, триллер, драма
Режиссер: Майк Флэнеган
Актеры: Джейкоб Трамбле, Кейт Босворт, Томас Джейн, Скотти Томпсон, Аннабет Гиш, Дэш Майок, Джей Карнс, Кайла Дивер, Лэнс Э. Николс, Кортни Белл
Описание:
У молодой пары, потерявшей маленького сына, появляется второй шанс на счастливую жизнь, когда они берут из приюта замечательного восьмилетнего Коди. По неизвестной им причине он очень боится засыпать по ночам, но вскоре оказывается, что дело в необычном даре Коди - пока он спит, его сны оживают. Каждую ночь новым родителям могут явиться либо прекрасные видения его воображения, либо леденящие душу порождения его кошмаров. И эти кошмары - смертельно опасны.

Возраст: 16+ (зрителям, достигшим 16 лет)
Рейтинг MPAA: PG-13 (детям до 13 лет просмотр нежелателен)
Дата мировой премьеры: 7 апреля 2016,
Дата премьеры в РФ: 28 апреля 2016, «Вольга»

Продолжительность: 01:36:29
Качество видео: DVDRip Сэмпл
Перевод: Дублированный (Звук с TS)
Субтитры: Отсутствуют
Реклама: Присутствуют вставки голосовой и текстовой рекламы.
Видео: MPEG4, XviD, 720x304 (2.35:1), 23.976 fps, 1 762 Kbps (0.336 bit/pixel)
Аудио: AC-3, 48.0 KHz, 2 ch, 224 Kbps, CBR

Mediainfo:

Формат                                   : AVI
Формат/Информация                        : Audio Video Interleave
Размер файла                             : 1,34 Гбайт
Продолжительность                        : 1 ч. 36 м.
Общий поток                              : 1995 Кбит/сек
Программа кодирования                    : VirtualDubMod 1.5.10.2 (build 2542/release)
Библиотека кодирования                   : VirtualDubMod build 2542/release
Видео
Идентификатор                            : 0
Формат                                   : MPEG-4 Visual
Профиль формата                          : Advanced [email protected]
Параметр BVOP формата                    : 2
Параметр QPel формата                    : Нет
Параметр GMC формата                     : Без точки перехода
Параметр матрицы формата                 : Выборочная
Идентификатор кодека                     : XVID
Идентификатор кодека/Подсказка           : XviD
Продолжительность                        : 1 ч. 36 м.
Битрейт                                  : 1762 Кбит/сек
Ширина                                   : 720 пикселей
Высота                                   : 304 пикселя
Соотношение сторон                       : 2,35:1
Частота кадров                           : 23,976 кадра/сек
Цветовое пространство                    : YUV
Субдискретизация насыщенности            : 4:2:0
Битовая глубина                          : 8 бит
Тип развёртки                            : Прогрессивная
Метод сжатия                             : С потерями
Бит/(Пиксели*Кадры)                      : 0.336
Размер потока                            : 1,19 Гбайт (88%)
Библиотека кодирования                   : XviD 1.2.1 (UTC 2008-12-04)
Аудио
Идентификатор                            : 1
Формат                                   : AC-3
Формат/Информация                        : Audio Coding 3
Расширение режима                        : CM (complete main)
Параметр Endianness формата              : Big
Идентификатор кодека                     : 2000
Продолжительность                        : 1 ч. 36 м.
Вид битрейта                             : Постоянный
Битрейт                                  : 224 Кбит/сек
Каналы                                   : 2 канала
Расположение каналов                     : Front: L R
Частота                                  : 48,0 КГц
Битовая глубина                          : 16 бит
Метод сжатия                             : С потерями
Задержка видео                           : 26 мс.
Размер потока                            : 155 Мбайт (11%)
Выравнивание                             : Разделение по промежуткам
Продолжительность промежутка             : 42  мс. (1,00 видеокадр)
Время предзагрузки промежутка            : 500  мс.
Скриншоты:

[Цитировать]



Показать сообщения:    

Текущее время: 04-Дек 19:23

Часовой пояс: UTC + 3


Вы не можете начинать темы
Вы не можете отвечать на сообщения
Вы не можете редактировать свои сообщения
Вы не можете удалять свои сообщения
Вы не можете голосовать в опросах
Вы не можете прикреплять файлы к сообщениям
Вы не можете скачивать файлы

!ВНИМАНИЕ!
Сайт не предоставляет электронные версии произведений, а занимается лишь коллекционированием и каталогизацией ссылок, присылаемых и публикуемых на форуме нашими читателями. Если вы являетесь правообладателем какого-либо представленного материала и не желаете, чтобы ссылка на него находилась в нашем каталоге, свяжитесь с нами, и мы незамедлительно удалим ее. Файлы для обмена на трекере предоставлены пользователями сайта, и администрация не несет ответственности за их содержание. Просьба не заливать файлы, защищенные авторскими правами, а также файлы нелегального содержания!