[ Today is free to download without increasing Download ]

DL-List and Torrent activity
34-й скорый (1981) SATRip Информация о фильме
Название: 34-й скорый
Год выхода: 1981
Жанр: Катастрофа, драма
Режиссёр: Андрей Малюков
В ролях: Лев Дуров, Леонид Трутнев, Александр Рыщенков, Елена Майорова, Вячеслав Езепов, Альгимантас Масюлис, Ирина Печерникова, Валерий Рыжаков, Марина Шиманская, Александр Фатюшин, Олег Голубицкий , Петерис Гаудыньш, Александр Пятков, Зоя Василькова, Даниил Нетребин, Наталья Харахорина, Анатолий Веденкин, Валентина Клягина, Григорий Маликов
О фильме: Скорый поезд №34 "Москва-Элекмонар" отправился точно по расписанию. Пассажиры спокойно готовились ко сну, когда в опустевшем купе от непогашенной сигареты загорелась занавеска. Вскоре загорелся и весь вагон. Ужасная катастрофа зависла над всеми пассажирами мчащегося в ночь поезда...

Страна: СССР
Студия: Мосфильм
Продолжительность: 01:18:18
Перевод: Не требуется (оригинальный)
Формат: avi
Качество: SATRip (DVB)
Видео: XviD, 720х304, 25fps, 2400kbps
Аудио: AC3 Dolby Digital, 2ch, 48000Hz, 256kbps


Complete name : 34.Skoryi.1981.O.SATRip.1400.CurHaJI.avi
Format : AVI
Format/Info : Audio Video Interleave
File size : 1.46 GiB
Duration : 1h 18mn
Overall bit rate : 2 666 Kbps
Movie name : 34.Skoryi.1981.O.SATRip.1400.CurHaJI
Writing application : VirtualDubMod | www.virtualdub-fr.org || (build 2550/release)
Writing library : VirtualDub build 35491/release
ID : 0
Format : MPEG-4 Visual
Format profile : Advanced Simple@L5
Format settings, BVOP : 2
Format settings, QPel : No
Format settings, GMC : No warppoints
Format settings, Matrix : Custom
Codec ID : XVID
Codec ID/Hint : XviD
Duration : 1h 18mn
Bit rate : 2 400 Kbps
Width : 720 pixels
Height : 304 pixels
Display aspect ratio : 2.35:1
Frame rate : 25.000 fps
Color space : YUV
Chroma subsampling : 4:2:0
Bit depth : 8 bits
Scan type : Progressive
Compression mode : Lossy
Bits/(Pixel*Frame) : 0.439
Stream size : 1.31 GiB (90%)
Writing library : XviD 73
ID : 1
Format : AC-3
Format/Info : Audio Coding 3
Mode extension : CM (complete main)
Format settings, Endianness : Big
Codec ID : 2000
Duration : 1h 18mn
Bit rate mode : Constant
Bit rate : 256 Kbps
Channel(s) : 2 channels
Channel positions : Front: L R
Sampling rate : 48.0 KHz
Bit depth : 16 bits
Compression mode : Lossy
Stream size : 143 MiB (10%)
Alignment : Split accross interleaves
Interleave, duration : 40 ms (1.00 video frame)
Interleave, preload duration : 500 ms



Display posts:    

Current time is: 21-Oct 19:36

All times are UTC + 3

You cannot post new topics in this forum
You cannot reply to topics in this forum
You cannot edit your posts in this forum
You cannot delete your posts in this forum
You cannot vote in polls in this forum
You cannot attach files in this forum
You cannot download files in this forum

The site does not give electronic versions of products, and is engaged only in a collecting and cataloguing of the references sent and published at a forum by our readers. If you are the legal owner of any submitted material and do not wish that the reference to it was in our catalogue, contact us and we shall immediately remove her. Files for an exchange on tracker are given by users of a site, and the administration does not bear the responsibility for their maintenance. The request to not fill in the files protected by copyrights, and also files of the illegal maintenance!