[ Сегодня идет свободное скачивание без начисления Download ]


Статистика раздачи
Нет
 
   
 
Top  
 
 
Исполнитель: Джигурда Никита Борисович
Оригинальное название: ОППА ДЖИГУРДА
Год выпуска: 2012
Жанр: Бредятина
Качество: WebRip 1080p
Продолжительность: 3 м. 54 с.
Формат: mp4
Видео: AVC, 1920х1080 (16:9), 5846 (kbps), 25 (fps), 0.113 bit/pixel
Аудио: 44,1 (kHz), AAC, 2 (ch), 192 (kbps)

MediaInfo

Общее
Полное имя : \\Pc\мои видеозаписи\клипы\ОППА ДЖИГУРДА! - опа джигурда =D.mp4
Формат : MPEG-4
Профиль формата : Base Media / Version 2
Идентификатор кодека : mp42
Размер файла : 168 Мбайт
Продолжительность : 3 м. 54 с.
Режим общего битрейта : Переменный
Общий поток : 6040 Кбит/сек
Дата кодирования : UTC 2012-12-19 22:47:37
Дата пометки : UTC 2012-12-19 22:47:37
gsst : 0
gstd : 234126
gssd : BBC2B4104HH1358009328664416
gshh : r1---sn-ug5onuxaxjvh-jx3e.c.youtube.com
Видео
Идентификатор : 1
Формат : AVC
Формат/Информация : Advanced Video Codec
Профиль формата : [email protected]
Параметр CABAC формата : Да
Параметр ReFrames формата : 1 кадр
Идентификатор кодека : avc1
Идентификатор кодека/Информация : Advanced Video Coding
Продолжительность : 3 м. 54 с.
Битрейт : 5846 Кбит/сек
Максимальный битрейт : 11,5 Мбит/сек
Ширина : 1920 пикселей
Высота : 1080 пикселей
Соотношение сторон : 16:9
Режим частоты кадров : Постоянный
Частота кадров : 25,000 кадров/сек
Цветовое пространство : YUV
Субдискретизация насыщенности : 4:2:0
Битовая глубина : 8 бит
Тип развёртки : Прогрессивная
Бит/(Пиксели*Кадры) : 0.113
Размер потока : 163 Мбайт (97%)
Дата пометки : UTC 2012-12-19 22:47:38
Аудио
Идентификатор : 2
Формат : AAC
Формат/Информация : Advanced Audio Codec
Профиль формата : LC
Идентификатор кодека : 40
Продолжительность : 3 м. 53 с.
Вид битрейта : Переменный
Битрейт : 192 Кбит/сек
Максимальный битрейт : 203 Кбит/сек
Каналы : 2 канала
Расположение каналов : Front: L R
Частота : 44,1 КГц
Метод сжатия : С потерями
Размер потока : 5,36 Мбайт (3%)
Заголовок : IsoMedia File Produced by Google, 5-11-2011
Дата кодирования : UTC 2012-12-19 22:47:38
Дата пометки : UTC 2012-12-19 22:47:38


Последний раз редактировалось: Morpheus (2013-01-12 22:20), всего редактировалось 2 раз(а)

[Цитировать]

Все таки добавил))

[Цитировать]

6578Все таки добавил))
Я же сказал что загружу его сюда))))

[Цитировать]



Показать сообщения:    

Текущее время: 05-Дек 13:34

Часовой пояс: UTC + 3


Вы не можете начинать темы
Вы не можете отвечать на сообщения
Вы не можете редактировать свои сообщения
Вы не можете удалять свои сообщения
Вы не можете голосовать в опросах
Вы не можете прикреплять файлы к сообщениям
Вы не можете скачивать файлы

!ВНИМАНИЕ!
Сайт не предоставляет электронные версии произведений, а занимается лишь коллекционированием и каталогизацией ссылок, присылаемых и публикуемых на форуме нашими читателями. Если вы являетесь правообладателем какого-либо представленного материала и не желаете, чтобы ссылка на него находилась в нашем каталоге, свяжитесь с нами, и мы незамедлительно удалим ее. Файлы для обмена на трекере предоставлены пользователями сайта, и администрация не несет ответственности за их содержание. Просьба не заливать файлы, защищенные авторскими правами, а также файлы нелегального содержания!