[ Сегодня идет свободное скачивание без начисления Download ]


Статистика раздачи
Скачал: [ 3 ]
 
   
 
Top  
 
 
Ценный груз / Precious Cargo Информация о фильме
Название: Ценный груз
Оригинальное название: Precious Cargo
Год выхода: 2016
Жанр: Боевик, триллер, драма, криминал
Режиссер: Макс Адамс
В ролях: Брюс Уиллис, Марк-Пол Госселаар, Клер Форлани, Джон Бразертон, Дженна Б. Келли, Николас М. Лоб, Лидия Халл, Дэниэл Бернхард, Эшли Кирк, Тайлер Джон Олсон
О фильме:
Профессиональная воровка Карен (Форлани) всегда ответственно подходит к каждому новому делу, но все на свете невозможно предугадать, и в этот раз ее план не сработал. А все потому, что она решила кинуть своего покровителя, жестокого криминального босса Эдди (Уиллис). За непослушание и обман, он требует всю долю, иначе верная смерть. Теперь ей придется выполнить задание для Эдди, чтобы расплатится за содеянное. Для этого она обращается к своему бывшему бойфренду, который должен помочь совершить ограбление грузовика перевозящего драгоценности. Это очень опасная миссия, в таком деле не должно быть не единой осечки, но всю ли правду рассказала Карен своей новой команде? Знают ли они в какую игру они ввязываются?

Страна: Канада
Студия: Emmett Furla Oasis Films (EFO Films), Herrick Entertainment, Mann Made Films
Продолжительность: 01:29:56
Перевод: Любительский многоголосый (закадровый)
Файл
Кодек: MPEG-4
Качество: BDRip 720p
Видео: 1280x536, 4800 Kbit/s, 23.976 fps
Звук:
Аудио #01: 48 kHz, AC3, 5.1, 640 Kbps | Любительский многоголосый (закадровый) |AC3
Аудио #02: 48 kHz, DTS, 5.1, 1510 kbps | Оригинал |DTS
Субтитры: Английские

MI

General
Unique ID : 202951492218153286740386991548017695480 (0x98AF091DDFEB10A9A912C1FD937C5AF8)
Complete name : F:VideoPrecious.Cargo.2016.BDRip.720p.ExKinoRay.mkv
Format : Matroska
Format version : Version 4 / Version 2
File size : 4.37 GiB
Duration : 1h 29mn
Overall bit rate : 6 948 Kbps
Movie name : Precious.Cargo.2016.BDRip.720p.ExKinoRay
Encoded date : UTC 2016-06-18 17:08:42
Writing application : mkvmerge v8.3.0 ('Over the Horizon') 64bit
Writing library : libebml v1.3.1 + libmatroska v1.4.2
Video
ID : 1
Format : AVC
Format/Info : Advanced Video Codec
Format profile : High@L4.1
Format settings, CABAC : Yes
Format settings, ReFrames : 12 frames
Codec ID : V_MPEG4/ISO/AVC
Duration : 1h 29mn
Bit rate : 4 800 Kbps
Width : 1 280 pixels
Height : 536 pixels
Display aspect ratio : 2.40:1
Frame rate mode : Constant
Frame rate : 23.976 (24000/1001) fps
Color space : YUV
Chroma subsampling : 4:2:0
Bit depth : 8 bits
Scan type : Progressive
Bits/(Pixel*Frame) : 0.292
Stream size : 3.01 GiB (69%)
Writing library : x264 core 142 r2431+42 c69a006 tMod [8-bit@all X86_64]
Encoding settings : cabac=1 / ref=12 / deblock=1:-3:-3 / analyse=0x3:0x133 / me=umh / subme=11 / psy=1 / fade_compensate=0.00 / psy_rd=1.05:1.00 / mixed_ref=1 / me_range=32 / chroma_me=1 / trellis=2 / 8x8dct=1 / cqm=0 / deadzone=21,11 / fast_pskip=0 / chroma_qp_offset=-4 / threads=12 / lookahead_threads=2 / sliced_threads=0 / nr=0 / decimate=0 / interlaced=0 / bluray_compat=0 / constrained_intra=0 / fgo=0 / bframes=8 / b_pyramid=2 / b_adapt=2 / b_bias=0 / direct=3 / weightb=1 / open_gop=0 / weightp=2 / keyint=240 / keyint_min=23 / scenecut=40 / intra_refresh=0 / rc_lookahead=60 / rc=2pass / mbtree=0 / bitrate=4800 / ratetol=1.0 / qcomp=0.60 / qpmin=0:0:0 / qpmax=69:69:69 / qpstep=4 / cplxblur=20.0 / qblur=0.5 / vbv_maxrate=40000 / vbv_bufsize=30000 / nal_hrd=none / filler=0 / ip_ratio=1.40 / pb_ratio=1.30 / aq=1:1.00 / aq-sensitivity=10.00 / aq-factor=1.00:1.00:1.00 / aq2=0 / aq3=0
Language : English
Default : Yes
Forced : No
Audio #1
ID : 2
Format : AC-3
Format/Info : Audio Coding 3
Mode extension : CM (complete main)
Format settings, Endianness : Big
Codec ID : A_AC3
Duration : 1h 29mn
Bit rate mode : Constant
Bit rate : 640 Kbps
Channel(s) : 6 channels
Channel positions : Front: L C R, Side: L R, LFE
Sampling rate : 48.0 KHz
Frame rate : 31.250 fps (1536 spf)
Compression mode : Lossy
Stream size : 412 MiB (9%)
Title : MVO
Language : Russian
Default : Yes
Forced : No
Audio #2
ID : 3
Format : DTS
Format/Info : Digital Theater Systems
Mode : 16
Format settings, Endianness : Big
Codec ID : A_DTS
Duration : 1h 29mn
Bit rate mode : Constant
Bit rate : 1 509 Kbps
Channel(s) : 6 channels
Channel positions : Front: L C R, Side: L R, LFE
Sampling rate : 48.0 KHz
Frame rate : 93.750 fps (512 spf)
Bit depth : 24 bits
Compression mode : Lossy
Stream size : 971 MiB (22%)
Title : Original
Language : English
Default : No
Forced : No
Text #1
ID : 4
Format : UTF-8
Codec ID : S_TEXT/UTF8
Codec ID/Info : UTF-8 Plain Text
Duration : 1h 28mn
Bit rate : 60 bps
Count of elements : 1034
Stream size : 39.3 KiB (0%)
Language : English
Default : No
Forced : No
Text #2
ID : 5
Format : UTF-8
Codec ID : S_TEXT/UTF8
Codec ID/Info : UTF-8 Plain Text
Duration : 1h 28mn
Bit rate : 64 bps
Count of elements : 1118
Stream size : 41.8 KiB (0%)
Language : English
Default : No
Forced : No
Menu
00:00:00.000 : en:00:00:00.000
00:08:58.621 : en:00:08:58.621
00:12:51.938 : en:00:12:51.938
00:16:55.848 : en:00:16:55.848
00:25:43.208 : en:00:25:43.208
00:32:43.128 : en:00:32:43.128
00:36:33.900 : en:00:36:33.900
00:42:13.197 : en:00:42:13.197
00:46:02.551 : en:00:46:02.551
00:52:34.360 : en:00:52:34.360
00:58:47.107 : en:00:58:47.107
01:02:41.466 : en:01:02:41.466
01:06:36.576 : en:01:06:36.576
01:08:36.696 : en:01:08:36.696
01:12:46.904 : en:01:12:46.904
01:21:35.057 : en:01:21:35.057

Скриншоты

[Цитировать]



Показать сообщения:    

Текущее время: 09-Дек 04:54

Часовой пояс: UTC + 3


Вы не можете начинать темы
Вы не можете отвечать на сообщения
Вы не можете редактировать свои сообщения
Вы не можете удалять свои сообщения
Вы не можете голосовать в опросах
Вы не можете прикреплять файлы к сообщениям
Вы не можете скачивать файлы

!ВНИМАНИЕ!
Сайт не предоставляет электронные версии произведений, а занимается лишь коллекционированием и каталогизацией ссылок, присылаемых и публикуемых на форуме нашими читателями. Если вы являетесь правообладателем какого-либо представленного материала и не желаете, чтобы ссылка на него находилась в нашем каталоге, свяжитесь с нами, и мы незамедлительно удалим ее. Файлы для обмена на трекере предоставлены пользователями сайта, и администрация не несет ответственности за их содержание. Просьба не заливать файлы, защищенные авторскими правами, а также файлы нелегального содержания!