[ Сегодня идет свободное скачивание без начисления Download ]


Статистика раздачи
Нет
 
   
 
Top  
 
 
Мистер Бин на отдыхе / Mr. Bean's Holiday«К несчастью, у него есть загранпаспорт.»
Год выпуска: 2007
Страна: Великобритания, Франция, Германия
Производство: Motion Picture Alpha Produktionsgesellschaft, Studio Canal, Tiger Aspect Productions, Universal Pictures, Working Title Films
Жанр: комедия, семейный
Режиссер: Стив Бенделак
В ролях: Роуэн Эткинсон, Уиллем Дефо, Жан Рошфор, Карел Роден, Макс Болдри, Стив Пембертон, Лили Эткинсон, Престон Найман, Шарлит Дейзак, Франсуа Туш
Перевод: Профессиональный (полное дублирование)
Субтитры: Отсутствуют
Описание: Мистер Бин отправляется на отдых на юг Франции, оставляя за собой повсюду яркие следы своих приключений. Недотепа и бедолага, мистер Бин снимает о своих неудачах любительский видеофильм, который умудряется даже показать на большом экране Каннского фестиваля.
[kp]196106[/kp] [imdb]tt0453451[/imdb]
Качество: BDRip-AVC
Продолжительность: 01:29:34
Формат: MKV
Видео кодек: AVC
Аудио кодек: AC3
Видео: 1024х552 (16:9), 23,976 fps, AVC, 2654 kbps, 0.196 bit/pixel
Аудио: 48 kHz, AC-3, 2 (L,C,R) + LFE ch, 384 kbps avg
Аудио #2: 48 kHz, AC-3, 3 (L,C,R) + LFE ch, 448 kbps avg

Media Info

Видео
Идентификатор                    : 1
Формат                           : AVC
Формат/Информация                : Advanced Video Codec
Профиль формата                  : [email protected]
Параметр CABAC формата           : Да
Параметр ReFrames формата        : 12 кадров
Идентификатор кодека             : V_MPEG4/ISO/AVC
Продолжительность                : 1 ч. 29 м.
Битрейт                          : 2654 Кбит/сек
Ширина                           : 1024 пикс.
Высота                           : 552 пикс.
Соотношение сторон               : 1,855
Соотношение сторон в оригинале   : 16:9
Режим частоты кадров             : Переменный
Частота кадров                   : 23,976 кадр/сек
Цветовое пространство            : YUV
Подвыборка цветности             : 4:2:0
Битовая глубина                  : 8 бит
Тип развёртки                    : Прогрессивная
Бит/(Пиксели*Кадры)              : 0.196
Размер потока                    : 1,62 Гбайт (74%)
Заголовок                        : Мистер Бин на отдыхе
Библиотека кодирования           : x264 core 128 r2216M 198a7ea
Настройки программы              : cabac=1 / ref=13 / deblock=1:-3:-2 / analyse=0x3:0x133 / me=umh / subme=11 / psy=1 / psy_rd=1.05:0.05 / mixed_ref=1 / me_range=32 / chroma_me=1 / trellis=2 / 8x8dct=1 / cqm=0 / deadzone=21,11 / fast_pskip=0 / chroma_qp_offset=-3 / threads=4 / lookahead_threads=1 / sliced_threads=0 / nr=0 / decimate=1 / interlaced=0 / bluray_compat=0 / constrained_intra=0 / bframes=14 / b_pyramid=1 / b_adapt=2 / b_bias=0 / direct=3 / weightb=1 / open_gop=0 / weightp=2 / keyint=240 / keyint_min=23 / scenecut=40 / intra_refresh=0 / rc_lookahead=150 / rc=2pass / mbtree=1 / bitrate=2654 / ratetol=1.0 / qcomp=0.70 / qpmin=0 / qpmax=69 / qpstep=3 / cplxblur=20.0 / qblur=0.5 / vbv_maxrate=20000 / vbv_bufsize=25000 / nal_hrd=none / ip_ratio=1.35 / aq=1:0.70
Аудио #1
Идентификатор                    : 2
Формат                           : AC-3
Формат/Информация                : Audio Coding 3
Расширение режима                : CM (complete main)
Идентификатор кодека             : A_AC3
Продолжительность                : 1 ч. 29 м.
Вид битрейта                     : Постоянный
Битрейт                          : 384 Кбит/сек
Каналы                           : 6 каналов
Расположение каналов             : Front: L C R, Side: L R, LFE
Частота                          : 48,0 КГц
Битовая глубина                  : 16 бит
Метод сжатия                     : С потерями
Задержка видео                   : 27 мс.
Размер потока                    : 246 Мбайт (11%)
Заголовок                        : Dub | DD 5.1 @ 384 kbps
Язык                             : Russian
Аудио #2
Идентификатор                    : 3
Формат                           : AC-3
Формат/Информация                : Audio Coding 3
Расширение режима                : CM (complete main)
Идентификатор кодека             : A_AC3
Продолжительность                : 1 ч. 29 м.
Вид битрейта                     : Постоянный
Битрейт                          : 448 Кбит/сек
Каналы                           : 6 каналов
Расположение каналов             : Front: L C R, Side: L R, LFE
Частота                          : 48,0 КГц
Битовая глубина                  : 16 бит
Метод сжатия                     : С потерями
Задержка видео                   : 27 мс.
Размер потока                    : 287 Мбайт (13%)
Заголовок                        : Original | DD 5.1 @ 448 kbps
Язык                             : English
[th]http://torrentsclub.org/pictures/5731e282749aee6493...ebd99cd.jpg[/th]
[th]http://torrentsclub.org/pictures/e3f1075cae1005c1c2...7943a31.jpg[/th]
[th]http://torrentsclub.org/pictures/a609bab698762568aa...7f2f277.jpg[/th]
[th]http://torrentsclub.org/pictures/9fc17f2ed758dca548...40ca6cd.jpg[/th]
[th]http://torrentsclub.org/pictures/3f3969f3cd28bb1f4a...a28c914.jpg[/th]
[th]http://torrentsclub.org/pictures/723f4fa6dc8c467777...b468717.jpg[/th]

[Цитировать]



Показать сообщения:    

Текущее время: 06-Дек 19:03

Часовой пояс: UTC + 3


Вы не можете начинать темы
Вы не можете отвечать на сообщения
Вы не можете редактировать свои сообщения
Вы не можете удалять свои сообщения
Вы не можете голосовать в опросах
Вы не можете прикреплять файлы к сообщениям
Вы не можете скачивать файлы

!ВНИМАНИЕ!
Сайт не предоставляет электронные версии произведений, а занимается лишь коллекционированием и каталогизацией ссылок, присылаемых и публикуемых на форуме нашими читателями. Если вы являетесь правообладателем какого-либо представленного материала и не желаете, чтобы ссылка на него находилась в нашем каталоге, свяжитесь с нами, и мы незамедлительно удалим ее. Файлы для обмена на трекере предоставлены пользователями сайта, и администрация не несет ответственности за их содержание. Просьба не заливать файлы, защищенные авторскими правами, а также файлы нелегального содержания!