[ Сегодня идет свободное скачивание без начисления Download ]


Статистика раздачи
Нет
 
   
 
Top  
 
 
Угроза из глубины / Атака двухголовой акулы / 2-Headed Shark Attack (2012) Информация о фильме
Название: Атака двухголовой акулы / Угроза из глубины
Оригинальное название: 2-Headed Shark Attack
Год выхода: 2012
Жанр: Ужасы, фантастика, боевик
Режиссер: Кристофер Рэй
В ролях: Кармен Электра, Чарли О’Коннелл, Брук Хоган, Джералд Уэбб, Дэвид Галлегос, Джофф Уорд, Мерседес Янг, Шэннан Стюарт, Tihirah Taliaferro, Michael Dicarluccio
О фильме:
На Земле все чаще встречаются мутанты, и люди все спокойнее на такое реагируют. Но то, с чем довелось столкнуться героям этого фильма не просто поражает — в открытом море встреча с акулой в любом случае не предвещает ничего хорошего, а если это еще и двухголовый монстр, то становится до смерти страшно… Именно такое чудовище напало на лодку Сэмэмстера. Разумеется, это был неравный поединок людей с морским кровожадным хищником, но некоторым удалось спастись на безлюдном острове. Кто знает, сколько бы этим «счастливчикам» довелось ждать вызволения из морского плена, но судьба подготовила им еще одно испытание, возможно последнее — на острове начинается наводнение, и безопасный прежде островок суши уже не может служить спасением от жутких челюстей двуглавой твари…
Семпл
Страна: США
Студия: Asylum
Продолжительность: 01:27:56
Перевод: Профессиональный (многоголосый) [лицензия]
Файл
Кодек: h264
Качество: BDRip 1080
Видео: 1920x1080 [16:9], 10100 kb/s, 23.976 fps, 0.204 bpp
Звук: Русский; AC3; 48.0 KHz; 2ch; 448 Kbps

Скриншоты

M.I

General
Unique ID : 191969752594418452386702893969050929295 (0x906C078CE8303AA9B8E7C9CFE553888F)
Complete name : D:Downloads2.Headed.Shark.Attack.2012.1080p.BluRay.x264.AC3-FGT.mkv
Format : Matroska
Format version : Version 4 / Version 2
File size : 6.49 GiB
Duration : 1h 27mn
Overall bit rate : 10.6 Mbps
Movie name : 2.Headed.Shark.Attack.2012.1080p.BluRay.x264.DTS-FGT
Encoded date : UTC 2016-06-18 06:05:17
Writing application : mkvmerge v9.2.0 ('Photograph') 64bit
Writing library : libebml v1.3.3 + libmatroska v1.4.4
Cover : Yes
Attachments : small_cover.jpg / small_cover_land.jpg / cover.jpg / cover_land.jpg
Video
ID : 1
Format : AVC
Format/Info : Advanced Video Codec
Format profile : High@L4.1
Format settings, CABAC : Yes
Format settings, ReFrames : 4 frames
Codec ID : V_MPEG4/ISO/AVC
Duration : 1h 27mn
Bit rate : 10.1 Mbps
Width : 1 920 pixels
Height : 1 080 pixels
Display aspect ratio : 16:9
Frame rate mode : Constant
Frame rate : 23.976 fps
Color space : YUV
Chroma subsampling : 4:2:0
Bit depth : 8 bits
Scan type : Progressive
Bits/(Pixel*Frame) : 0.204
Stream size : 6.22 GiB (96%)
Writing library : x264 core 122 r2184 5c85e0a
Encoding settings : cabac=1 / ref=4 / deblock=1:0:0 / analyse=0x3:0x113 / me=umh / subme=7 / psy=1 / psy_rd=1.00:0.00 / mixed_ref=1 / me_range=16 / chroma_me=1 / trellis=1 / 8x8dct=1 / cqm=0 / deadzone=21,11 / fast_pskip=0 / chroma_qp_offset=-2 / threads=12 / sliced_threads=0 / nr=0 / decimate=1 / interlaced=0 / bluray_compat=0 / constrained_intra=0 / bframes=3 / b_pyramid=2 / b_adapt=1 / b_bias=0 / direct=1 / weightb=1 / open_gop=0 / weightp=2 / keyint=250 / keyint_min=23 / scenecut=40 / intra_refresh=0 / rc_lookahead=40 / rc=crf / mbtree=1 / crf=20.0 / qcomp=0.60 / qpmin=0 / qpmax=69 / qpstep=4 / ip_ratio=1.40 / aq=1:1.00
Language : English
Default : Yes
Forced : No
Audio
ID : 2
Format : AC-3
Format/Info : Audio Coding 3
Mode extension : CM (complete main)
Format settings, Endianness : Big
Codec ID : A_AC3
Duration : 1h 25mn
Bit rate mode : Constant
Bit rate : 448 Kbps
Channel(s) : 6 channels
Channel positions : Front: L C R, Side: L R, LFE
Sampling rate : 48.0 KHz
Frame rate : 31.250 fps (1536 spf)
Compression mode : Lossy
Stream size : 272 MiB (4%)
Title : Русский (профессиональный многоголосый)
Language : Russian
Default : Yes
Forced : No

[Цитировать]



Показать сообщения:    

Текущее время: 07-Дек 13:39

Часовой пояс: UTC + 3


Вы не можете начинать темы
Вы не можете отвечать на сообщения
Вы не можете редактировать свои сообщения
Вы не можете удалять свои сообщения
Вы не можете голосовать в опросах
Вы не можете прикреплять файлы к сообщениям
Вы не можете скачивать файлы

!ВНИМАНИЕ!
Сайт не предоставляет электронные версии произведений, а занимается лишь коллекционированием и каталогизацией ссылок, присылаемых и публикуемых на форуме нашими читателями. Если вы являетесь правообладателем какого-либо представленного материала и не желаете, чтобы ссылка на него находилась в нашем каталоге, свяжитесь с нами, и мы незамедлительно удалим ее. Файлы для обмена на трекере предоставлены пользователями сайта, и администрация не несет ответственности за их содержание. Просьба не заливать файлы, защищенные авторскими правами, а также файлы нелегального содержания!