[ Сегодня идет свободное скачивание без начисления Download ]


Статистика раздачи
Нет
 
   
 
Top  
 
 
Зимы не будет (2014) Информация о фильме
Название: Зимы не будет
Год выпуска: 2014
Страна: Россия
Жанр: комедия-Перевод: Не требуется [iTunes]
Субтитры: английские
Продолжительность: 01:19:02-Режиссер: Илья Демичев
В ролях: Ксения Раппопорт, Ингеборга Дапкунайте, Александр Самойленко, Сергей Колтаков, Елена Кондулайнен, Дмитрий Бедерин, Никита Ефремов, Анна Перелешина, Михаил Евланов, Игорь Жижикин, Николай Стоцкий, Сергей Барковский-Описание:
Привычный, скучный и такой, до боли знакомый, мир главных героев вдруг начинает сходить с ума в тот миг, когда над Землей нависает угроза столкновения с гигантским метеоритом. Конец света неизбежен. Апокалипсис грядет. И тут наступает момент истины для самых потаенных желаний. Или сейчас, или никогда. Отступать уже поздно. И в этот миг, сами того не ожидая, наши герои пускаются в остервенелую пляску по самому краю бездны. Шаг влево... шаг вправо... и все - конец! Пустота. Но героев уже не остановить, потому что завтра... и так уже ничего не будет. Зимы, по крайней мере, не будет точно. Хотя... возможно, кому-то еще повезет...-Рейтинг:
-Качество: WEB-DL 720p
Формат: MKV
Видео: AVC, 1280x544@960x544 (2.35:1), 3989 kbps, 25 fps, 0,306 bpp
Аудио: русский / AC3 / 5.1 / 48 kHz / 384 kbps / 16 bit |iTunes|
Навигация по главам: есть
Семпл-

ОтчетМедиаИнфо

General
Unique ID : 187477541530759779776821409466368138771 (0x8D0ADC71EDD58F72B6AD823A81041E13)
Complete name : E:Zimy.ne.bydet.2O14.O.WEBDL.720p.mkv
Format : Matroska
Format version : Version 4 / Version 2
File size : 2.46 GiB
Duration : 1h 19mn
Overall bit rate : 4 463 Kbps
Encoded date : UTC 2016-06-18 23:37:01
Writing application : mkvmerge v6.8.0 ('Theme for Great Cities') 64bit built on Mar 2 2014 21:34:26
Writing library : libebml v1.3.0 + libmatroska v1.4.1
Video
ID : 1
Format : AVC
Format/Info : Advanced Video Codec
Format profile : Main@L3.1
Format settings, CABAC : No
Format settings, ReFrames : 2 frames
Codec ID : V_MPEG4/ISO/AVC
Duration : 1h 19mn
Bit rate : 3 990 Kbps
Width : 960 pixels
Height : 544 pixels
Display aspect ratio : 2.35:1
Frame rate : 25.000 fps
Color space : YUV
Chroma subsampling : 4:2:0
Bit depth : 8 bits
Scan type : Progressive
Bits/(Pixel*Frame) : 0.306
Stream size : 2.20 GiB (89%)
Language : English
Default : Yes
Forced : No
Color primaries : BT.709-5, BT.1361, IEC 61966-2-4, SMPTE RP177
Transfer characteristics : BT.709-5, BT.1361
Matrix coefficients : BT.709-5, BT.1361, IEC 61966-2-4 709, SMPTE RP177
Audio
ID : 2
Format : AC-3
Format/Info : Audio Coding 3
Mode extension : CM (complete main)
Codec ID : A_AC3
Duration : 1h 19mn
Bit rate mode : Constant
Bit rate : 384 Kbps
Channel(s) : 6 channels
Channel positions : Front: L C R, Side: L R, LFE
Sampling rate : 48.0 KHz
Bit depth : 16 bits
Compression mode : Lossy
Stream size : 217 MiB (9%)
Language : Russian
Default : Yes
Forced : No
Text
ID : 3
Format : UTF-8
Codec ID : S_TEXT/UTF8
Codec ID/Info : UTF-8 Plain Text
Language : English
Default : No
Forced : No
Menu
00:00:00.000 : en:Глава 1
00:04:39.320 : en:Глава 2
00:10:16.480 : en:Глава 3
00:14:09.160 : en:Глава 4
00:17:49.000 : en:Глава 5
00:23:40.760 : en:Глава 6
00:29:32.920 : en:Глава 7
00:34:41.880 : en:Глава 8
00:40:02.520 : en:Глава 9
00:45:35.560 : en:Глава 10
00:53:06.080 : en:Глава 11
00:58:27.640 : en:Глава 12
01:03:21.560 : en:Глава 13
01:06:17.160 : en:Глава 14
01:11:10.840 : en:Глава 15
01:14:03.720 : en:Глава 16

Скриншоты

[Цитировать]



Показать сообщения:    

Текущее время: 11-Дек 05:20

Часовой пояс: UTC + 3


Вы не можете начинать темы
Вы не можете отвечать на сообщения
Вы не можете редактировать свои сообщения
Вы не можете удалять свои сообщения
Вы не можете голосовать в опросах
Вы не можете прикреплять файлы к сообщениям
Вы не можете скачивать файлы

!ВНИМАНИЕ!
Сайт не предоставляет электронные версии произведений, а занимается лишь коллекционированием и каталогизацией ссылок, присылаемых и публикуемых на форуме нашими читателями. Если вы являетесь правообладателем какого-либо представленного материала и не желаете, чтобы ссылка на него находилась в нашем каталоге, свяжитесь с нами, и мы незамедлительно удалим ее. Файлы для обмена на трекере предоставлены пользователями сайта, и администрация не несет ответственности за их содержание. Просьба не заливать файлы, защищенные авторскими правами, а также файлы нелегального содержания!