[ Сегодня идет свободное скачивание без начисления Download ]


Статистика раздачи
Скачал: [ 1 ]
 
   
 
Top  
 
 
Год Дракона / Year of the Dragon (1985) Информация о фильме
Название: Год Дракона
Оригинальное название: Year of the Dragon
Год выхода: 1985
Жанр: Боевик, триллер, драма, криминал
Режиссер: Майкл Чимино
В ролях: Микки Рурк, Джон Лоун, Эриан, Леонард Термо, Рэймонд Дж. Бэрри, Кэролайн Кэва, Эдди Джонс, Джои Чин, Виктор Вонг, Хон Лам Пау, Вэй Донг Ву, Джимми Сунь, Дэниэл Дэвин, Марк Хаммер, Деннис Дун, Джек Келер, Стивен Чен, Пол Скальоне, Джозеф Бонавентура
О фильме:
В глубоком лабиринте Нью-Йорка скрывается Китайский квартал — рассадник Триады, тысячелетней криминальной угрозы миру. Джой Тай, ее новый крестный отец, ожесточает раздел территорий азиатской и итальянской наркомафий. Улицы обагряются кровью его врагов. Но в дела Китайского квартала напролом вторгается капитан полиции Стэнли Уайт, ветеран вьетнамской войны. Он бессердечен и бесстрастен. Он — сжатый кулак. Он объявляет преступному беспределу бескомпромиссную войну…
Страна: США
Студия: Dino De Laurentiis Company, AMLF, Metro-Goldwyn-Mayer (MGM)
Продолжительность: 02:14:25
Перевод: Профессиональный многоголосый (R5 / Neoclassica)
Файл
Кодек: x264
Качество: HDRip-AVC
Видео: MPEG-4 AVC, 1933 Кбит/с, 1024x432, 23.976 кадр/с
Aудио #1: AC3, 2 ch, 192 Кбит/с | Русский
Aудио #1: AC3, 2 ch, 192 Кбит/с | Английский
Субтитры: Русские, английские

MediaInfo

Общее
Уникальный идентификатор : 211548706807060894439993929684402780461 (0x9F26CC859A397C6C92E0B0293DC7392D)
Полное имя : Year.of.the.Dragon.1985.HDRip-AVC.mkv
Формат : Matroska
Версия формата : Version 4 / Version 2
Размер файла : 2,18 Гбайт
Продолжительность : 2 ч. 14 м.
Общий поток : 2319 Кбит/сек
Название фильма : Year of the Dragon
Режиссёр : Michael Cimino
Дата кодирования : UTC 2016-06-19 18:31:09
Программа кодирования : mkvmerge v7.7.0 ('Six Voices') 32bit built on Feb 28 2015 23:23:00
Библиотека кодирования : libebml v1.3.1 + libmatroska v1.4.2
Attachements : cover.jpg
Release : Koenig
DURATION : 02:05:43.386000000
NUMBER_OF_FRAMES : 1334
NUMBER_OF_BYTES : 56890
_STATISTICS_WRITING_APP : mkvmerge v7.7.0 ('Six Voices') 32bit built on Feb 28 2015 23:23:00
_STATISTICS_WRITING_DATE_UTC : 2016-06-19 18:31:09
_STATISTICS_TAGS : BPS DURATION NUMBER_OF_FRAMES NUMBER_OF_BYTES
Видео
Идентификатор : 1
Формат : AVC
Формат/Информация : Advanced Video Codec
Профиль формата : High@L4.1
Параметр CABAC формата : Да
Параметр ReFrames формата : 12 кадров
Идентификатор кодека : V_MPEG4/ISO/AVC
Продолжительность : 2 ч. 14 м.
Битрейт : 1933 Кбит/сек
Ширина : 1024 пикселя
Высота : 432 пикселя
Соотношение сторон : 2,40:1
Режим частоты кадров : Постоянный
Частота кадров : 23,976 кадра/сек
Цветовое пространство : YUV
Субдискретизация насыщенности : 4:2:0
Битовая глубина : 8 бит
Тип развёртки : Прогрессивная
Бит/(Пиксели*Кадры) : 0.182
Размер потока : 1,77 Гбайт (81%)
Библиотека кодирования : x264 core 146 r2538 121396c
Настройки программы : cabac=1 / ref=12 / deblock=1:-3:-3 / analyse=0x3:0x133 / me=umh / subme=10 / psy=1 / psy_rd=1.00:0.00 / mixed_ref=1 / me_range=32 / chroma_me=1 / trellis=2 / 8x8dct=1 / cqm=0 / deadzone=21,11 / fast_pskip=0 / chroma_qp_offset=-2 / threads=3 / lookahead_threads=1 / sliced_threads=0 / nr=0 / decimate=1 / interlaced=0 / bluray_compat=0 / constrained_intra=0 / bframes=9 / b_pyramid=2 / b_adapt=2 / b_bias=0 / direct=3 / weightb=1 / open_gop=0 / weightp=2 / keyint=240 / keyint_min=23 / scenecut=40 / intra_refresh=0 / rc_lookahead=40 / rc=2pass / mbtree=1 / bitrate=1933 / ratetol=1.0 / qcomp=0.60 / qpmin=10 / qpmax=51 / qpstep=4 / cplxblur=20.0 / qblur=0.5 / vbv_maxrate=50000 / vbv_bufsize=62500 / nal_hrd=none / filler=0 / ip_ratio=1.40 / aq=1:1.00
Default : Да
Forced : Нет
Аудио #1
Идентификатор : 2
Формат : AC-3
Формат/Информация : Audio Coding 3
Расширение режима : CM (complete main)
Параметр Endianness формата : Big
Идентификатор кодека : A_AC3
Продолжительность : 2 ч. 14 м.
Вид битрейта : Постоянный
Битрейт : 192 Кбит/сек
Каналы : 2 канала
Расположение каналов : Front: L R
Частота : 48,0 КГц
Метод сжатия : С потерями
Размер потока : 185 Мбайт (8%)
Заголовок : MVO - R5 / Neoclassica
Язык : Russian
Default : Да
Forced : Нет
Аудио #2
Идентификатор : 3
Формат : AC-3
Формат/Информация : Audio Coding 3
Расширение режима : CM (complete main)
Параметр Endianness формата : Big
Идентификатор кодека : A_AC3
Продолжительность : 2 ч. 14 м.
Вид битрейта : Постоянный
Битрейт : 192 Кбит/сек
Каналы : 2 канала
Расположение каналов : Front: L R
Частота : 48,0 КГц
Метод сжатия : С потерями
Размер потока : 185 Мбайт (8%)
Язык : English
Default : Нет
Forced : Нет
Текст #1
Идентификатор : 4
Формат : UTF-8
Идентификатор кодека : S_TEXT/UTF8
Идентификатор кодека/Информация : UTF-8 Plain Text
Язык : Russian
Default : Да
Forced : Нет
Текст #2
Идентификатор : 5
Формат : UTF-8
Идентификатор кодека : S_TEXT/UTF8
Идентификатор кодека/Информация : UTF-8 Plain Text
Язык : English
Default : Нет
Forced : Нет
Меню
00:00:00.000 : en:
00:02:07.127 : en:
00:10:49.023 : en:
00:19:53.359 : en:
00:24:33.471 : en:
00:33:17.953 : en:
00:37:05.055 : en:
00:47:18.419 : en:
00:54:33.520 : en:
01:00:16.738 : en:
01:15:03.332 : en:
01:20:17.979 : en:
01:22:31.362 : en:
01:27:47.888 : en:
01:35:30.433 : en:
01:41:39.510 : en:
01:47:19.058 : en:
01:55:18.328 : en:
02:03:19.767 : en:
02:10:28.361 : en:

Скриншоты

[Цитировать]



Показать сообщения:    

Текущее время: 09-Дек 12:46

Часовой пояс: UTC + 3


Вы не можете начинать темы
Вы не можете отвечать на сообщения
Вы не можете редактировать свои сообщения
Вы не можете удалять свои сообщения
Вы не можете голосовать в опросах
Вы не можете прикреплять файлы к сообщениям
Вы не можете скачивать файлы

!ВНИМАНИЕ!
Сайт не предоставляет электронные версии произведений, а занимается лишь коллекционированием и каталогизацией ссылок, присылаемых и публикуемых на форуме нашими читателями. Если вы являетесь правообладателем какого-либо представленного материала и не желаете, чтобы ссылка на него находилась в нашем каталоге, свяжитесь с нами, и мы незамедлительно удалим ее. Файлы для обмена на трекере предоставлены пользователями сайта, и администрация не несет ответственности за их содержание. Просьба не заливать файлы, защищенные авторскими правами, а также файлы нелегального содержания!