[ Сегодня идет свободное скачивание без начисления Download ]


Статистика раздачи
Нет
 
   
 
Top  
 
 
Судьба барабанщика (1955) Страна: СССР
Производство: Киностудия им. М.Горького
Жанр: драма, приключения
Год выпуска: 1955
Продолжительность: 01:25:03
Перевод: Не требуется
Cубтитры: нет
Оригинальная аудиодорожка: русский
Режиссер: Виктор Эйсымонт
В ролях:
Даниил Сагал, Сережа Ясинский, Алла Ларионова, Андрей Абрикосов, Виктор Хохряков, Клавдия Половикова, Александр Лебедев, Василий Краснощеков, Леонид Пирогов, Николай Тимофеев, Борис Бурляев, Валя Рогачева...
Полный список актёров
Описание:
Кристальный коммунист Аркадий Петрович Гайдар позволил себе написать «Судьбу барабанщика» — говоря словами Достоевского, книгу «далеко не безобидную». Писалась она в 1937-38 годах и рассказывала о сыне заключенного — в прошлом командира Красной Армии, ныне отбывающего срок «за растрату». На первый взгляд это — повесть о патриотизме и бдительности. На взгляд внимательный и пристрастный — документ тревожного и трагичного времени.
Просоветского и милитаризованного Гайдара не принято хвалить. Но факт остается фактом: Гайдар — блистательный стилист. Атмосфера и ритм его прозы удивительны. «А жизнь, товарищи, была совсем хорошая!» — восклицает он в «Голубой чашке». Перечитайте «Судьбу барабанщика», она пронизана тревогой, смятенностью. «Хорошая жизнь» здесь становится уязвимой, зыбкой, вплоть до того, что порою кажется видением, сном. Реален страх, реальна зловещая тень, отбрасываемая на «хорошую жизнь» неким безымянным злом. Теперь-то мы знаем его имена: террор, ГУЛАГ. Лояльный Гайдар, естественно, и не мыслил называть все своими именами, но дыхание этого ада описал с удивительной достоверностью.
Превращая большую повесть в сценарий полуторачасового фильма, Гайдар, невольно освобождаясь от «описаний» и авторских отступлений, оставил лишь магистральную сюжетную линию. В результате произведение потеряло то, что составляло ценность и своеобразие литературного первоисточника. «Судьбу барабанщика» Гайдар своею собственной рукой превратил в незамысловатый сюжет о шпионах, напрочь лишенный загадки и обаяния повести с ее тревожным двоением смыслов. Реальность в фильме не просто перестает слоиться и зыбиться, как это было в книге, но, более того, перестает быть реальностью, становится одним из распространенных мифов сталинской эпохи — о врагах и диверсантах.- -Источник: DVD5 R5
Качество видео: DVDRip-AVC
Формат видео: MKV
Видео: 712->762x572 (4:3), 25 fps, H264 ~ 1639 kbps avg, 0.161 bit/pixel
Аудио: 48 kHz, Dolby Digital AC3 2.0, 192 kbps

MediaInfo

Общее
Полное имя : Sudba.darabanshika.1955.DVDRip-AVC_[New-team]_by_AVP_Studio.mkv
Формат : Matroska
Версия формата : Version 2
Размер файла : 1,09 Гбайт
Продолжительность : 1 ч. 25 м.
Общий поток : 1833 Кбит/сек
Дата кодирования : UTC 2016-06-19 13:32:18
Программа кодирования : mkvmerge v6.1.0 ('Old Devil') built on Mar 4 2013 09:10:42
Библиотека кодирования : libebml v1.3.0 + libmatroska v1.4.0
Видео
Идентификатор : 1
Формат : AVC
Формат/Информация : Advanced Video Codec
Профиль формата : High@L4.1
Параметр CABAC формата : Да
Параметр ReFrames формата : 10 кадров
Идентификатор кодека : V_MPEG4/ISO/AVC
Продолжительность : 1 ч. 25 м.
Битрейт : 1639 Кбит/сек
Ширина : 712 пикселей
Высота : 572 пикселя
Соотношение сторон : 4:3
Режим частоты кадров : Постоянный
Частота кадров : 25,000 кадров/сек
Цветовое пространство : YUV
Субдискретизация насыщенности : 4:2:0
Битовая глубина : 8 бит
Тип развёртки : Прогрессивная
Бит/(Пиксели*Кадры) : 0.161
Размер потока : 976 Мбайт (88%)
Библиотека кодирования : x264 core 148 r2597 e86f3a1
Настройки программы : cabac=1 / ref=10 / deblock=1:-2:-1 / analyse=0x3:0x113 / me=umh / subme=10 / psy=1 / psy_rd=1.00:0.00 / mixed_ref=1 / me_range=32 / chroma_me=1 / trellis=2 / 8x8dct=1 / cqm=0 / deadzone=21,11 / fast_pskip=1 / chroma_qp_offset=-2 / threads=6 / lookahead_threads=1 / sliced_threads=0 / nr=0 / decimate=0 / interlaced=0 / bluray_compat=0 / constrained_intra=0 / bframes=8 / b_pyramid=2 / b_adapt=2 / b_bias=0 / direct=3 / weightb=1 / open_gop=0 / weightp=2 / keyint=250 / keyint_min=25 / scenecut=40 / intra_refresh=0 / rc=2pass / mbtree=0 / bitrate=1639 / ratetol=1.0 / qcomp=0.60 / qpmin=0 / qpmax=69 / qpstep=4 / cplxblur=20.0 / qblur=0.5 / ip_ratio=1.40 / pb_ratio=1.30 / aq=1:1.00
Default : Да
Forced : Нет
Аудио
Идентификатор : 2
Формат : AC-3
Формат/Информация : Audio Coding 3
Расширение режима : CM (complete main)
Параметр Endianness формата : Big
Идентификатор кодека : A_AC3
Продолжительность : 1 ч. 25 м.
Вид битрейта : Постоянный
Битрейт : 192 Кбит/сек
Каналы : 2 канала
Расположение каналов : Front: L R
Частота : 48,0 КГц
Частота кадров : 31,250 кадров/сек (1536 spf)
Метод сжатия : С потерями
Размер потока : 117 Мбайт (10%)
Default : Да
Forced : Нет

Скриншоты

[Цитировать]



Показать сообщения:    

Текущее время: 02-Дек 21:09

Часовой пояс: UTC + 3


Вы не можете начинать темы
Вы не можете отвечать на сообщения
Вы не можете редактировать свои сообщения
Вы не можете удалять свои сообщения
Вы не можете голосовать в опросах
Вы не можете прикреплять файлы к сообщениям
Вы не можете скачивать файлы

!ВНИМАНИЕ!
Сайт не предоставляет электронные версии произведений, а занимается лишь коллекционированием и каталогизацией ссылок, присылаемых и публикуемых на форуме нашими читателями. Если вы являетесь правообладателем какого-либо представленного материала и не желаете, чтобы ссылка на него находилась в нашем каталоге, свяжитесь с нами, и мы незамедлительно удалим ее. Файлы для обмена на трекере предоставлены пользователями сайта, и администрация не несет ответственности за их содержание. Просьба не заливать файлы, защищенные авторскими правами, а также файлы нелегального содержания!