[ Сегодня идет свободное скачивание без начисления Download ]


Статистика раздачи
Скачал: [ 1 ]
 
   
 
Top  
 
 
Дом игрушек Пи-ви / Pee-wee's Big Holiday (2016) WEB-DLRip - Производство: США
Жанр: Комедия, Приключения
Режиссер: Джон Ли
Продюсер: Джудд Апатоу, Пол Рубенс, Сара Бауэн
Актеры: Пол Рубенс, Джордан Блэк, Даг Кокс, Линда Портер, Моника Хоран, Брайан Палермо, Кэтерин Вандерлинден, Тара Бак, Джон Х. Майер, Ричард Рили
Описание:
Главный герой Пи-Ви, не совсем обычный, жизнерадостный человек, который проживает в небольшом городке. В целом он доволен жизнью и наслаждается каждой прожитой минутой, его знают все жители, включая детей. Не смотря на то, что он не любит перемены, однажды Пи-Ви, решает взять отпуск и отправиться в путешествие по стране. На своем пути, он повстречает множество интересных персонажей, к примеру грабительниц банка, познакомится с фермером и его сексуально озабоченными дочерьми. Он будет передвигаться всеми доступными способами, как по суше так и по воде и воздухе..

Дата мировой премьеры: 17 марта 2016,
Продолжительность: 01:29:07
Качество видео: WEB-DLRip сэмпл
Перевод: Одноголосый закадровый, любительский (Cmert)
Видео: Xvid, 720x384, ~2021 kbps
Аудио: MP3, 2 ch, 128 kbps, CBR

Mediainfo:

Общее
Полное имя                               : J:\Dom.Igrushek.Pi.WI.avi
Формат                                   : AVI
Формат/Информация                        : Audio Video Interleave
Размер файла                             : 1,34 Гбайт
Продолжительность                        : 1 ч. 29 м.
Общий поток                              : 2159 Кбит/сек
Программа кодирования                    : VirtualDubMod 1.5.10.2 (build 2540/release)
Библиотека кодирования                   : VirtualDubMod build 2540/release
Видео
Идентификатор                            : 0
Формат                                   : MPEG-4 Visual
Профиль формата                          : Advanced [email protected]
Параметр BVOP формата                    : 2
Параметр QPel формата                    : Нет
Параметр GMC формата                     : Без точки перехода
Параметр матрицы формата                 : Default (H.263)
Режим смешивания                         : Сжатый битовый поток
Идентификатор кодека                     : XVID
Идентификатор кодека/Подсказка           : XviD
Продолжительность                        : 1 ч. 29 м.
Битрейт                                  : 2021 Кбит/сек
Ширина                                   : 720 пикселей
Высота                                   : 384 пикселя
Соотношение сторон                       : 1,85:1
Частота кадров                           : 23,976 (23976/1000) кадра/сек
Цветовое пространство                    : YUV
Субдискретизация насыщенности            : 4:2:0
Битовая глубина                          : 8 бит
Тип развёртки                            : Прогрессивная
Метод сжатия                             : С потерями
Бит/(Пиксели*Кадры)                      : 0.305
Размер потока                            : 1,26 Гбайт (94%)
Библиотека кодирования                   : XviD 66
Аудио
Идентификатор                            : 1
Формат                                   : MPEG Audio
Версия формата                           : Version 1
Профиль формата                          : Layer 3
Режим                                    : Joint stereo
Расширение режима                        : MS Stereo
Идентификатор кодека                     : 55
Идентификатор кодека/Подсказка           : MP3
Продолжительность                        : 1 ч. 29 м.
Вид битрейта                             : Постоянный
Битрейт                                  : 128 Кбит/сек
Каналы                                   : 2 канала
Частота                                  : 44,1 КГц
Метод сжатия                             : С потерями
Размер потока                            : 81,6 Мбайт (6%)
Выравнивание                             : Разделение по промежуткам
Продолжительность промежутка             : 42  мс. (1,00 видеокадр)
Время предзагрузки промежутка            : 500  мс.
Скриншоты:

[Цитировать]



Показать сообщения:    

Текущее время: 06-Дек 17:07

Часовой пояс: UTC + 3


Вы не можете начинать темы
Вы не можете отвечать на сообщения
Вы не можете редактировать свои сообщения
Вы не можете удалять свои сообщения
Вы не можете голосовать в опросах
Вы не можете прикреплять файлы к сообщениям
Вы не можете скачивать файлы

!ВНИМАНИЕ!
Сайт не предоставляет электронные версии произведений, а занимается лишь коллекционированием и каталогизацией ссылок, присылаемых и публикуемых на форуме нашими читателями. Если вы являетесь правообладателем какого-либо представленного материала и не желаете, чтобы ссылка на него находилась в нашем каталоге, свяжитесь с нами, и мы незамедлительно удалим ее. Файлы для обмена на трекере предоставлены пользователями сайта, и администрация не несет ответственности за их содержание. Просьба не заливать файлы, защищенные авторскими правами, а также файлы нелегального содержания!