[ Сегодня идет свободное скачивание без начисления Download ]


Статистика раздачи
Скачал: [ 1 ]
 
   
 
Top  
 
 
Добро пожаловать в Коллинвуд / Welcome to Collinwood (2002) Страна: США Германия
Производство: Warner Bros. Pictures, Pandora Cinema, H5B5 Media AG, Gaylord Films
Год выпуска: 2002
Жанр: комедия, криминал
Продолжительность: 01:26:03
Режиссеры: Энтони Руссо, Джо Руссо
Авторы сценария: Энтони Руссо, Джо Руссо
В ролях: Уильям Х. Мэйси, Сэм Рокуэлл, Луис Гусман, Исайя Вашингтон, Майкл Джитер, Патришия Кларксон, Эндрю Дэволи, Джордж Клуни
Описание: У мелкого воришки Косимо появляется план, как разбогатеть, использовав информацию, полученную у сокамерника. Самое главное — поскорее выбраться из тюрьмы. Все, что нужно Косимо — это найти отчаявшегося парня, того, кто согласится за $15000 взять вину на себя и отсидеть от одного до трех лет в тюрьме.
Косимо поручает своей подружке Розалинде найти такого простака. Сидеть в тюрьме за преступление Косимо никто не хочет. Однако каждый делает вид, что найдет такого парня за «проценты». Пятеро парней, желающих что-нибудь урвать для себя, постоянно крутятся возле Розалинды...

Перевод: Профессиональный (полное дублирование)
Субтитры: русские, английские-Качество: WEB-DL 720p
Формат: МКV
Видео кодек: AVC
Аудио кодек: АС3
Видео: 1280x532 (2.40:1), 23.976 fps, MPEG-4 AVC ~3 981 kbps avg
Аудио №1: 48 kHz, AC3 Dolby Digital, 3/2 (L,C,R,l,r) + LFE ch, ~448 kbps | RUS
Аудио №2: 48 kHz, AC3 Dolby Digital, 3/2 (L,C,R,l,r) + LFE ch, ~384 kbps | ENG
Формат субтитров: русские (Advanced Sub Station Alpha), английские (UTF-8 Plain Text)
Бюджет: $12 000 000
Дата премьеры (мир): 24 мая 2002

Media Info

General
Unique ID : 231580920172269972483203921247042475436 (0xAE38DCE51AAC143F977644155A4B15AC)
Complete name : Welcome_to_Collinwood_2002_720p_WEB-DL.mkv
Format : Matroska
Format version : Version 4 / Version 2
File size : 2.89 GiB
Duration : 1h 26mn
Overall bit rate : 4 815 Kbps
Encoded date : UTC 2016-04-25 15:56:56
Writing application : mkvmerge v7.7.0 ('Six Voices') 64bit built on Feb 28 2015 23:39:33
Writing library : libebml v1.3.1 + libmatroska v1.4.2
Video
ID : 1
Format : AVC
Format/Info : Advanced Video Codec
Format profile : Main@L3.1
Format settings, CABAC : No
Format settings, ReFrames : 2 frames
Format settings, GOP : N=1
Codec ID : V_MPEG4/ISO/AVC
Duration : 1h 26mn
Bit rate : 3 981 Kbps
Width : 1 280 pixels
Height : 532 pixels
Display aspect ratio : 2.40:1
Frame rate mode : Constant
Frame rate : 23.976 (23976/1000) fps
Color space : YUV
Chroma subsampling : 4:2:0
Bit depth : 8 bits
Scan type : Progressive
Bits/(Pixel*Frame) : 0.244
Stream size : 2.39 GiB (83%)
Language : English
Default : Yes
Forced : No
Color range : Limited
Color primaries : BT.709
Transfer characteristics : BT.709
Matrix coefficients : BT.709
Audio #1
ID : 2
Format : AC-3
Format/Info : Audio Coding 3
Mode extension : CM (complete main)
Format settings, Endianness : Big
Codec ID : A_AC3
Duration : 1h 25mn
Bit rate mode : Constant
Bit rate : 448 Kbps
Channel(s) : 6 channels
Channel positions : Front: L C R, Side: L R, LFE
Sampling rate : 48.0 KHz
Frame rate : 31.250 fps (1536 spf)
Compression mode : Lossy
Stream size : 275 MiB (9%)
Title : Русский (дубляж)
Language : Russian
Default : Yes
Forced : No
Audio #2
ID : 3
Format : AC-3
Format/Info : Audio Coding 3
Mode extension : CM (complete main)
Format settings, Endianness : Big
Codec ID : A_AC3
Duration : 1h 26mn
Bit rate mode : Constant
Bit rate : 384 Kbps
Channel(s) : 6 channels
Channel positions : Front: L C R, Side: L R, LFE
Sampling rate : 48.0 KHz
Frame rate : 31.250 fps (1536 spf)
Compression mode : Lossy
Stream size : 236 MiB (8%)
Title : English
Language : English
Default : No
Forced : No
Text #1
ID : 4
Format : ASS
Codec ID : S_TEXT/ASS
Codec ID/Info : Advanced Sub Station Alpha
Duration : 1h 22mn
Bit rate : 161 bps
Count of elements : 1061
Compression mode : Lossless
Stream size : 97.8 KiB (0%)
Title : Русские субтитры
Language : Russian
Default : No
Forced : No
Text #2
ID : 5
Format : UTF-8
Codec ID : S_TEXT/UTF8
Codec ID/Info : UTF-8 Plain Text
Duration : 1h 25mn
Bit rate : 94 bps
Count of elements : 1523
Stream size : 59.2 KiB (0%)
Title : English CC
Language : English
Default : No
Forced : No
Menu
00:00:00.000 : en:Not-so-grand theft auto.
00:02:40.000 : en:Mullinski for a Bellini.
00:06:59.000 : en:Basil and Leon.
00:10:41.000 : en:Riley.
00:12:49.000 : en:Pero.
00:15:32.000 : en:A Krazner tale.
00:19:05.000 : en:Rqual shares.
00:22:14.000 : en:Jerzy's free.
00:26:58.000 : en:Bad news Babitch.
00:30:25.000 : en:How to meet a maid.
00:35:59.000 : en:Cosimo's out.
00:38:52.000 : en:Punchy over Carmela.
00:43:45.000 : en:Unexpected departures.
00:46:33.000 : en:Ready for a job.
00:48:53.000 : en:Arraingements for tonight.
00:53:34.000 : en:Looking like a Kupuchnik.
00:56:45.000 : en:Suprise!
01:00:00.000 : en:Keys, please
01:02:05.000 : en:Downs and ups.
01:05:01.000 : en:Keep your pants on.
01:07:36.000 : en:The cat again.
01:10:53.000 : en:Antwerp at work.
01:13:49.000 : en:Got a match?
01:17:47.000 : en:Not our night.
01:21:06.000 : en:End credits.

Скриншоты

[Цитировать]



Показать сообщения:    

Текущее время: 11-Дек 16:56

Часовой пояс: UTC + 3


Вы не можете начинать темы
Вы не можете отвечать на сообщения
Вы не можете редактировать свои сообщения
Вы не можете удалять свои сообщения
Вы не можете голосовать в опросах
Вы не можете прикреплять файлы к сообщениям
Вы не можете скачивать файлы

!ВНИМАНИЕ!
Сайт не предоставляет электронные версии произведений, а занимается лишь коллекционированием и каталогизацией ссылок, присылаемых и публикуемых на форуме нашими читателями. Если вы являетесь правообладателем какого-либо представленного материала и не желаете, чтобы ссылка на него находилась в нашем каталоге, свяжитесь с нами, и мы незамедлительно удалим ее. Файлы для обмена на трекере предоставлены пользователями сайта, и администрация не несет ответственности за их содержание. Просьба не заливать файлы, защищенные авторскими правами, а также файлы нелегального содержания!