[ Сегодня идет свободное скачивание без начисления Download ]


Статистика раздачи
Качаю: [ 1 ]
 
   
 
Top  
 
 
Мать (1955) Страна: СССР
Производство: Киевская киностудия
Жанр: драма
Год выпуска: 1955
Продолжительность: 01:36:36
Перевод: Не требуется
Cубтитры: нет
Оригинальная аудиодорожка: русский
Режиссер: Марк Донской
В ролях:
Вера Марецкая, Алексей Баталов, Никифор Колофидин, Андрей Петров, Павел Усовниченко, Сергей Курилов, Татьяна Пилецкая, Лилия Гриценко, Владимир Маренков, Павел Волков, Константин Немоляев, Иван Неганов...
Полный список актёров
Описание:
На заре XX века все так же беспросветна жизнь простой русской женщины Пелагеи Ниловны Власовой, жены чернорабочего-пропойцы. Неожиданная смерть главы семьи, кажется, не сулит ей никаких надежд, но, видя слезы матери, молодой Павел Власов отказывается от разгульной жизни. Увлекшись пролетарскими идеями, он распространяет листовки на фабрике и призывает рабочих бороться с угнетателями. Смелое преображение сына воодушевляет и саму Ниловну: робкая, страшащаяся людей женщина преисполняется гордости и самоуважения. Но хватит ли матери мужества продолжить дело своего единственного сына?- -Источник: DVD5 R5
Качество видео: DVDRip
Формат видео: AVI
Видео: 672x496 (4:3), 25 fps, XviD ~ 1410 kbps avg, 0.169 bit/pixel
Аудио: 48 kHz, Dolby Digital AC3 2.0, 192 kbps

MediaInfo

Общее
Полное имя : Mat.1955.DVDRip_[New-team]_by_AVP_Studio.avi
Формат : AVI
Формат/Информация : Audio Video Interleave
Размер файла : 1,09 Гбайт
Продолжительность : 1 ч. 36 м.
Общий поток : 1612 Кбит/сек
Программа кодирования : VirtualDubMod 1.5.10.3 | www.virtualdub-fr.org || (build 2550/release)
Библиотека кодирования : VirtualDubMod build 2550/release
Видео
Идентификатор : 0
Формат : MPEG-4 Visual
Профиль формата : Advanced Simple@L5
Параметр BVOP формата : 1
Параметр QPel формата : Нет
Параметр GMC формата : Без точки перехода
Параметр матрицы формата : Выборочная
Идентификатор кодека : XVID
Идентификатор кодека/Подсказка : XviD
Продолжительность : 1 ч. 36 м.
Битрейт : 1410 Кбит/сек
Ширина : 672 пикселя
Высота : 496 пикселей
Соотношение сторон : 4:3
Частота кадров : 25,000 кадров/сек
Цветовое пространство : YUV
Субдискретизация насыщенности : 4:2:0
Битовая глубина : 8 бит
Тип развёртки : Прогрессивная
Метод сжатия : С потерями
Бит/(Пиксели*Кадры) : 0.169
Размер потока : 974 Мбайт (87%)
Библиотека кодирования : XviD 1.2.1 (UTC 2008-12-04)
Аудио
Идентификатор : 1
Формат : AC-3
Формат/Информация : Audio Coding 3
Расширение режима : CM (complete main)
Параметр Endianness формата : Big
Идентификатор кодека : 2000
Продолжительность : 1 ч. 36 м.
Вид битрейта : Постоянный
Битрейт : 192 Кбит/сек
Каналы : 2 канала
Расположение каналов : Front: L R
Частота : 48,0 КГц
Частота кадров : 31,250 кадров/сек (1536 spf)
Метод сжатия : С потерями
Размер потока : 133 Мбайт (12%)
Выравнивание : Разделение по промежуткам
Продолжительность промежутка : 40 мс. (1,00 видеокадр)
Время предзагрузки промежутка : 500 мс

Скриншоты

[Цитировать]



Показать сообщения:    

Текущее время: 09-Дек 16:38

Часовой пояс: UTC + 3


Вы не можете начинать темы
Вы не можете отвечать на сообщения
Вы не можете редактировать свои сообщения
Вы не можете удалять свои сообщения
Вы не можете голосовать в опросах
Вы не можете прикреплять файлы к сообщениям
Вы не можете скачивать файлы

!ВНИМАНИЕ!
Сайт не предоставляет электронные версии произведений, а занимается лишь коллекционированием и каталогизацией ссылок, присылаемых и публикуемых на форуме нашими читателями. Если вы являетесь правообладателем какого-либо представленного материала и не желаете, чтобы ссылка на него находилась в нашем каталоге, свяжитесь с нами, и мы незамедлительно удалим ее. Файлы для обмена на трекере предоставлены пользователями сайта, и администрация не несет ответственности за их содержание. Просьба не заливать файлы, защищенные авторскими правами, а также файлы нелегального содержания!