[ Сегодня идет свободное скачивание без начисления Download ]


Статистика раздачи
Скачал: [ 1 ]
 
   
 
Top  
 
 
Брат (1997) HD DVDRip [H.264/720p] [hand made 60fps] - Производство: Россия, СТВ
Жанр: Боевик, Драма, Криминал
Режиссер: Алексей Балабанов
Актеры: Сергей Бодров мл., Виктор Сухоруков, Светлана Письмиченко, Мария Жукова, Юрий Кузнецов, Вячеслав Бутусов, Ирина Ракшина, Сергей Мурзин, Анатолий Журавлев, Игорь Шибанов, Андрей Федорцов, Сергей Дебижев
Описание:
Демобилизованный из армии, Данила Багров вернулся в родной городок. Но скучная жизнь российской провинции не устраивала его, и он решился податься в Петербург, где, по слухам, уже несколько лет процветает его старший брат. Данила нашел брата. Но все оказалось не так просто - брат был наемным убийцей.
Возраст: 16+ (зрителям, достигшим 16 лет)
Продолжительность: 01:39:36
Качество видео: HD DVDRip
Видео: AVC/H.264, 1280x720, ~60fps, 9999 Кбит/сек
Аудио: AC3, 6 ch, 384 Кбит/сек, 48,0 КГц
Дата премьеры: 17.05.1997
Дата премьеры на DVD: 18.11.2010

Mediainfo:

Общее
Уникальный идентификатор                 : 197234897494159519870779720673784318216 (0x94620F3C74647EADA3CB4FE07C294908)
Полное имя                               : D:\Фильмы\Брат.1997.HDDVD.720p.60fps.mkv
Формат                                   : Matroska
Версия формата                           : Version 2
Размер файла                             : 7,23 Гбайт
Продолжительность                        : 1 ч. 39 м.
Общий поток                              : 10,4 Мбит/сек
Дата кодирования                         : UTC 2015-01-29 09:59:47
Программа кодирования                    : mkvmerge v3.4.0 ('Rapunzel') сборка от May 15 2010 09:38:20
Библиотека кодирования                   : libebml v0.8.0 + libmatroska v0.9.0
Видео
Идентификатор                            : 1
Формат                                   : AVC
Формат/Информация                        : Advanced Video Codec
Профиль формата                          : [url=mailto:[email protected]][email protected][/url]
Параметр CABAC формата                   : Да
Параметр ReFrames формата                : 8 кадров
Идентификатор кодека                     : V_MPEG4/ISO/AVC
Продолжительность                        : 1 ч. 39 м.
Битрейт                                  : 9999 Кбит/сек
Ширина                                   : 1280 пикселей
Высота                                   : 720 пикселей
Соотношение сторон                       : 16:9
Режим частоты кадров                     : Постоянный
Частота кадров                           : 59,880 кадров/сек
Частота кадров в оригинале               : 59,940 кадров/сек
Цветовое пространство                    : YUV
Субдискретизация насыщенности            : 4:2:0
Битовая глубина                          : 8 бит
Тип развёртки                            : Прогрессивная
Бит/(Пиксели*Кадры)                      : 0.181
Размер потока                            : 6,82 Гбайт (94%)
Заголовок                                : [url=http://www.60-fps.org]www.60-fps.org[/url]
Библиотека кодирования                   : x264 core 129 r2245 bc13772
Настройки программы                      : cabac=1 / ref=8 / deblock=1:-3:-3 / analyse=0x3:0x133 / me=esa / subme=9 / psy=1 / psy_rd=1.00:0.25 / mixed_ref=1 / me_range=32 / chroma_me=1 / trellis=2 / 8x8dct=1 / cqm=0 / deadzone=6,6 / fast_pskip=1 / chroma_qp_offset=-4 / threads=12 / lookahead_threads=2 / sliced_threads=0 / nr=0 / decimate=0 / interlaced=0 / bluray_compat=0 / constrained_intra=0 / bframes=4 / b_pyramid=2 / b_adapt=2 / b_bias=0 / direct=3 / weightb=1 / open_gop=0 / weightp=2 / keyint=599 / keyint_min=59 / scenecut=40 / intra_refresh=0 / rc_lookahead=60 / rc=2pass / mbtree=1 / bitrate=9999 / ratetol=1.0 / qcomp=0.80 / qpmin=0 / qpmax=69 / qpstep=4 / cplxblur=19.0 / qblur=0.0 / ip_ratio=1.10 / aq=1:0.50
Язык                                     : English
Default                                  : Нет
Forced                                   : Нет
Аудио
Идентификатор                            : 2
Формат                                   : AC-3
Формат/Информация                        : Audio Coding 3
Расширение режима                        : CM (complete main)
Параметр Endianness формата              : Big
Идентификатор кодека                     : A_AC3
Продолжительность                        : 1 ч. 39 м.
Вид битрейта                             : Постоянный
Битрейт                                  : 384 Кбит/сек
Каналы                                   : 6 каналов
Расположение каналов                     : Front: L C R, Side: L R, LFE
Частота                                  : 48,0 КГц
Битовая глубина                          : 16 бит
Метод сжатия                             : С потерями
Размер потока                            : 274 Мбайт (4%)
Default                                  : Да
Forced                                   : Нет

Дополнительная информация:

Награды и номинации:
Главный приз и премия за мужскую роль на фестивале «Кинотавр», специальный приз на МКФ в Турине, Золотая медаль на МКФ в Триесте, премия за мужскую роль на МКФ в Чикаго
Ника, 1998 год
Номинации (1):
Лучший фильм
Кинотавр, 1997 год
Победитель (2):
Главный приз
Лучшая мужская роль ( Сергей Бодров мл. )
Карловы Вары, 1997 год
Номинации (1):
Хрустальный глобус

Скриншоты

[Цитировать]



Показать сообщения:    

Текущее время: 04-Дек 02:59

Часовой пояс: UTC + 3


Вы не можете начинать темы
Вы не можете отвечать на сообщения
Вы не можете редактировать свои сообщения
Вы не можете удалять свои сообщения
Вы не можете голосовать в опросах
Вы не можете прикреплять файлы к сообщениям
Вы не можете скачивать файлы

!ВНИМАНИЕ!
Сайт не предоставляет электронные версии произведений, а занимается лишь коллекционированием и каталогизацией ссылок, присылаемых и публикуемых на форуме нашими читателями. Если вы являетесь правообладателем какого-либо представленного материала и не желаете, чтобы ссылка на него находилась в нашем каталоге, свяжитесь с нами, и мы незамедлительно удалим ее. Файлы для обмена на трекере предоставлены пользователями сайта, и администрация не несет ответственности за их содержание. Просьба не заливать файлы, защищенные авторскими правами, а также файлы нелегального содержания!