[ Сегодня идет свободное скачивание без начисления Download ]


Статистика раздачи
Скачал: [ 2 ]
 
   
 
Top  
 
 
Брат 2 (2000) WEB-DL [H.264/720p] [hand made 60fps]- Жанр: Боевик, Криминал
Режиссер: Алексей Балабанов
Актеры: Сергей Бодров мл., Виктор Сухоруков, Сергей Маковецкий, Ирина Салтыкова, Александр Дьяченко, Константин Желдин, Гэри Хьюстон, Рэй Толер, Лиза Джеффри и др.
Описание:
Участвуя в программе на телевидении, Данила Багров встречает своих друзей по Чечне. Одного из них внезапно убивают. Данила знает, что у того были неприятности из-за брата-хоккеиста в Америке. Данила должен разобраться. Он вылетает в Америку и для компании берёт с собой брата. Теперь его фотография ходит по рукам русской и американской мафии. Новоявленные «Аль Капоне» понимают, что нарвались на профессионала…

Продолжительность: 02:02:23
Качество видео: WEB-DL 720р
Формат: MKV
Видео: MPEG-4 AVC, 1280x694, ~60fps, 6000 Кбит/сек
Аудио: AC3, 2 ch, 192 Кбит/сек, 48,0 КГц

Mediainfo:

Общее
Уникальный идентификатор : 235639984108726323000444284803497822541 (0xB1469C32B971F2693E8FACF91D77894D)
Полное имя : D:\Фильмы\Брат-2.2000. WEB-DL 720p. 60fps.mkv
Формат : Matroska
Версия формата : Version 4 / Version 2
Размер файла : 5,33 Гбайт
Продолжительность : 2 ч. 2 м.
Общий поток : 6230 Кбит/сек
Программа кодирования : Lavf55.19.104
Библиотека кодирования : Lavf55.19.104
Видео
Идентификатор : 1
Формат : AVC
Формат/Информация : Advanced Video Codec
Профиль формата : Baseline@L1.3
Параметр CABAC формата : Нет
Параметр ReFrames формата : 2 кадра
Идентификатор кодека : V_MPEG4/ISO/AVC
Продолжительность : 2 ч. 2 м.
Битрейт : 6000 Кбит/сек
Ширина : 1280 пикселей
Высота : 694 пикселя
Соотношение сторон : 16:9
Режим частоты кадров : Постоянный
Частота кадров : 60,000 кадров/сек
Цветовое пространство : YUV
Субдискретизация насыщенности : 4:2:0
Битовая глубина : 8 бит
Тип развёртки : Прогрессивная
Бит/(Пиксели*Кадры) : 0.113
Размер потока : 5,06 Гбайт (95%)
Библиотека кодирования : x264 core 140 r2377 1ca7bb9
Настройки программы : cabac=0 / ref=2 / deblock=1:0:0 / analyse=0x1:0x111 / me=umh / subme=6 / psy=1 / psy_rd=1.00:0.00 / mixed_ref=1 / me_range=16 / chroma_me=1 / trellis=0 / 8x8dct=0 / cqm=0 / deadzone=21,11 / fast_pskip=1 / chroma_qp_offset=-2 / threads=6 / lookahead_threads=1 / sliced_threads=0 / nr=0 / decimate=1 / interlaced=0 / bluray_compat=0 / constrained_intra=0 / bframes=0 / weightp=0 / keyint=250 / keyint_min=25 / scenecut=40 / intra_refresh=0 / rc_lookahead=40 / rc=abr / mbtree=1 / bitrate=6000 / ratetol=1.0 / qcomp=0.60 / qpmin=0 / qpmax=69 / qpstep=4 / ip_ratio=1.40 / aq=1:1.00
Язык : English
Default : Да
Forced : Нет
DURATION : 02:02:37.017000000
NUMBER_OF_FRAMES : 441421
NUMBER_OF_BYTES : 3658442888
_STATISTICS_WRITING_APP : mkvmerge v7.6.0 ('Garden of Dreams') 32bit built on Feb 8 2015 12:51:39
_STATISTICS_WRITING_DATE_UTC : 2015-10-27 07:00:54
_STATISTICS_TAGS : BPS DURATION NUMBER_OF_FRAMES NUMBER_OF_BYTES
Аудио
Идентификатор : 2
Формат : AC-3
Формат/Информация : Audio Coding 3
Расширение режима : CM (complete main)
Параметр Endianness формата : Big
Идентификатор кодека : A_AC3
Продолжительность : 2 ч. 2 м.
Вид битрейта : Постоянный
Битрейт : 192 Кбит/сек
Каналы : 2 канала
Расположение каналов : Front: L R
Частота : 48,0 КГц
Битовая глубина : 16 бит
Метод сжатия : С потерями
Задержка видео : -5 мс.
Размер потока : 168 Мбайт (3%)
Заголовок : AC3
Default : Да
Forced : Нет
DURATION : 02:02:37.024000000
NUMBER_OF_FRAMES : 229907
NUMBER_OF_BYTES : 411993344
_STATISTICS_WRITING_APP : mkvmerge v7.6.0 ('Garden of Dreams') 32bit built on Feb 8 2015 12:51:39
_STATISTICS_WRITING_DATE_UTC : 2015-10-27 07:00:54
_STATISTICS_TAGS : BPS DURATION NUMBER_OF_FRAMES NUMBER_OF_BYTES

Скриншоты

[Цитировать]



Показать сообщения:    

Текущее время: 10-Дек 06:07

Часовой пояс: UTC + 3


Вы не можете начинать темы
Вы не можете отвечать на сообщения
Вы не можете редактировать свои сообщения
Вы не можете удалять свои сообщения
Вы не можете голосовать в опросах
Вы не можете прикреплять файлы к сообщениям
Вы не можете скачивать файлы

!ВНИМАНИЕ!
Сайт не предоставляет электронные версии произведений, а занимается лишь коллекционированием и каталогизацией ссылок, присылаемых и публикуемых на форуме нашими читателями. Если вы являетесь правообладателем какого-либо представленного материала и не желаете, чтобы ссылка на него находилась в нашем каталоге, свяжитесь с нами, и мы незамедлительно удалим ее. Файлы для обмена на трекере предоставлены пользователями сайта, и администрация не несет ответственности за их содержание. Просьба не заливать файлы, защищенные авторскими правами, а также файлы нелегального содержания!