[ Сегодня идет свободное скачивание без начисления Download ]


Статистика раздачи
Качаю: [ 1 ]
Скачал: [ 6 ]
 
   
 
Top  
 
 
День независимости / Independence Day (1996) BDRip [h265/1080p-LQ] [hi10bit]
[Extended Cut] [Remastered] [hand made 60fps]
- Производство: США / 20th Century Fox Film Corporation, Centropolis Entertainment
Жанр: Фантастика, Боевик, Приключения
Режиссер: Роланд Эммерих
Актеры: Уилл Смит, Джефф Голдблюм, Билл Пуллман, Мэри МакДоннелл, Джадд Хёрш, Роберт Лоджа, Рэнди Куэйд, Маргарет Колин, Вивика А. Фокс, Джеймс Ребхорн, Харви Фирштейн, Адам Болдуин, Брент Спайнер, Джеймс Дювал, Лиза Якуб, Джузеппе Эндрюс, Росс Бэгли, Билл Смитрович, Мэй Уитман, Кирстен Уоррен, Девон Гаммерсолл
Описание: На Земле принимается сигнал, посланный источником явно неземного происхождения. Источник этот приближается, и на «уши» поднимается вся планета. Никто, правда, не ожидал, что инопланетяне окажутся такими огромными и в таком количестве.

Возраст: 12+ (зрителям, достигшим 12 лет)
Рейтинг MPAA: PG-13 (детям до 13 лет просмотр нежелателен)
Продолжительность: 02:33:34
Качество видео: BDRip
Перевод: Профессиональный (многоголосый закадровый) х3, авторский (одноголосый закадровый)
Вид субтитров: Вшитые, отключаемые
Язык субтитров: Русский, Английский
Видео: HEVC/H.265, 10 bit, 5181 Kbps, 1920x808 pixels
Аудио 1: Русский AC3 5.1, 640 Kbps, (Многоголосый закадровый) Superbit
Аудио 2: Русский AC3 5.1, 448 Kbps, (Многоголосый закадровый) Киномания
Аудио 3: Русский AC3 2.0, 192 Kbps, (Многоголосый закадровый) Гемини
Аудио 4: Русский AC3 5.1, 640 Kbps, (Одноголосый закадровый) Ю. Живов
Аудио 5: Английский AC3 5.1, 640 Kbps, (Оригинал)

Mediainfo:

General
Unique ID : 174607889123974879020861339176375623943 (0x835C419791B0ADE282E68147982F2107)
Complete name : E:\Video\60 fps\INDEPENDENCE_DAY_EXTENDED_CUT_1996\INDEPENDENCE_DAY_EXTENDED_CUT_1996_BDRip_h265_10bit_60fps.mkv
Format : Matroska
Format version : Version 4 / Version 2
File size : 8.35 GiB
Duration : 2h 33mn
Overall bit rate : 7 781 Kbps
Encoded date : UTC 2016-06-13 03:33:08
Writing application : mkvmerge v7.7.0 ('Six Voices') 64bit built on Feb 28 2015 23:39:33
Writing library : libebml v1.3.1 + libmatroska v1.4.2
Video
ID : 1
Format : HEVC
Format/Info : High Efficiency Video Coding
Codec ID : V_MPEGH/ISO/HEVC
Duration : 2h 33mn
Bit rate : 5 181 Kbps
Width : 1 920 pixels
Height : 808 pixels
Display aspect ratio : 2.40:1
Frame rate mode : Constant
Frame rate : 59.940 fps
Bits/(Pixel*Frame) : 0.056
Stream size : 5.56 GiB (67%)
Title : Rip by izomsk
Language : English
Default : Yes
Forced : No
Audio #1
ID : 2
Format : AC-3
Format/Info : Audio Coding 3
Mode extension : CM (complete main)
Format settings, Endianness : Big
Codec ID : A_AC3
Duration : 2h 33mn
Bit rate mode : Constant
Bit rate : 640 Kbps
Channel(s) : 6 channels
Channel positions : Front: L C R, Side: L R, LFE
Sampling rate : 44.1 KHz
Frame rate : 28.711 fps (1536 spf)
Compression mode : Lossy
Stream size : 703 MiB (8%)
Title : Многоголосый закадровый, Superbit
Language : Russian
Default : Yes
Forced : No
Audio #2
ID : 3
Format : AC-3
Format/Info : Audio Coding 3
Mode extension : CM (complete main)
Format settings, Endianness : Big
Codec ID : A_AC3
Duration : 2h 33mn
Bit rate mode : Constant
Bit rate : 448 Kbps
Channel(s) : 6 channels
Channel positions : Front: L C R, Side: L R, LFE
Sampling rate : 48.0 KHz
Frame rate : 31.250 fps (1536 spf)
Compression mode : Lossy
Stream size : 492 MiB (6%)
Title : Многоголосый закадровый, Киномания
Language : Russian
Default : No
Forced : No
Audio #3
ID : 4
Format : AC-3
Format/Info : Audio Coding 3
Mode extension : CM (complete main)
Format settings, Endianness : Big
Codec ID : A_AC3
Duration : 2h 33mn
Bit rate mode : Constant
Bit rate : 192 Kbps
Channel(s) : 2 channels
Channel positions : Front: L R
Sampling rate : 48.0 KHz
Frame rate : 31.250 fps (1536 spf)
Compression mode : Lossy
Stream size : 211 MiB (2%)
Title : Многоголосый закадровый, Гемини
Language : Russian
Default : No
Forced : No
Audio #4
ID : 5
Format : AC-3
Format/Info : Audio Coding 3
Mode extension : CM (complete main)
Format settings, Endianness : Big
Codec ID : A_AC3
Duration : 2h 33mn
Bit rate mode : Constant
Bit rate : 640 Kbps
Channel(s) : 6 channels
Channel positions : Front: L C R, Side: L R, LFE
Sampling rate : 48.0 KHz
Frame rate : 31.250 fps (1536 spf)
Compression mode : Lossy
Stream size : 703 MiB (8%)
Title : Одноголосый закадровый, Ю.Живов
Language : Russian
Default : No
Forced : No
Audio #5
ID : 6
Format : AC-3
Format/Info : Audio Coding 3
Mode extension : CM (complete main)
Format settings, Endianness : Big
Codec ID : A_AC3
Duration : 2h 33mn
Bit rate mode : Constant
Bit rate : 640 Kbps
Channel(s) : 6 channels
Channel positions : Front: L C R, Side: L R, LFE
Sampling rate : 48.0 KHz
Frame rate : 31.250 fps (1536 spf)
Compression mode : Lossy
Stream size : 703 MiB (8%)
Title : Original
Language : English
Default : No
Forced : No
Text #1
ID : 7
Format : PGS
Muxing mode : zlib
Codec ID : S_HDMV/PGS
Codec ID/Info : Picture based subtitle format used on BDs/HD-DVDs
Duration : 2h 23mn
Bit rate : 21.8 Kbps
Count of elements : 5484
Stream size : 22.4 MiB (0%)
Language : Russian
Default : No
Forced : No
Text #2
ID : 8
Format : PGS
Muxing mode : zlib
Codec ID : S_HDMV/PGS
Codec ID/Info : Picture based subtitle format used on BDs/HD-DVDs
Duration : 2h 23mn
Bit rate : 15.3 Kbps
Count of elements : 3573
Stream size : 15.7 MiB (0%)
Language : English
Default : No
Forced : No

Дополнительная информация

» Специальная версия фильма имеет хронометраж 153 минуты.
» Аббревиатура «ID4», которой первоначально именовался этот фильм, была создана после того, как возникли юридические проблемы с правом на название «День независимости».
» На основе фильма в 1997 году компанией Fox Interactive была создана одноименная компьютерная игра.
» В начале фильма по телевизору начинается прямое включение с Новосибирском (Россия), после этого на нем показывают карту с городами: Москва, Петроград, Новосйойрск (создатели имели ввиду Новосибирск).

Скриншоты

[Цитировать]



Показать сообщения:    

Текущее время: 08-Дек 17:10

Часовой пояс: UTC + 3


Вы не можете начинать темы
Вы не можете отвечать на сообщения
Вы не можете редактировать свои сообщения
Вы не можете удалять свои сообщения
Вы не можете голосовать в опросах
Вы не можете прикреплять файлы к сообщениям
Вы не можете скачивать файлы

!ВНИМАНИЕ!
Сайт не предоставляет электронные версии произведений, а занимается лишь коллекционированием и каталогизацией ссылок, присылаемых и публикуемых на форуме нашими читателями. Если вы являетесь правообладателем какого-либо представленного материала и не желаете, чтобы ссылка на него находилась в нашем каталоге, свяжитесь с нами, и мы незамедлительно удалим ее. Файлы для обмена на трекере предоставлены пользователями сайта, и администрация не несет ответственности за их содержание. Просьба не заливать файлы, защищенные авторскими правами, а также файлы нелегального содержания!