[ Сегодня идет свободное скачивание без начисления Download ]


Статистика раздачи
Скачал: [ 1 ]
 
   
 
Top  
 
 
Пришельцы / Les visiteurs (1993) BDRip AVC 60 FPS - Производство: Gaumont International
Жанр: Фантастика, Фэнтези, Комедия
Режиссер: Жан-Мари Пуаре
Актеры: Жан Рено, Кристиан Клавье, Валери Лемерсье, Мари-Анн Шазель, Кристиан Бюжо, Изабель Нанти, Жерар Сети, Дидье Пэн, Жан-Поль Мюэль, Ариель Семенофф, Мишель Пейрелон, Пьер Виаль, Франсуа Лаланд, Дидье Бенюро, Фредерик Батист
Описание:
Франция 1122 год. Граф Годфруа де Монмирай став жертвой проклятия злой колдуньи, убивает отца своей невесты. Годфруа обращается за помощью к великому волшебнику Эвсебиусу, который предлагает графу отправиться по коридорам времени в прошлое и исправить свою ошибку. Де Монмирай соглашается на это предложение, но из-за ошибки волшебника он и его слуга попадают в 90-е годы нашего времени. В ХХ веке их ждет много приключений и встреча со своими потомками…

Возраст: 16+ (зрителям, достигшим 16 лет)
Рейтинг MPAA: R (лицам до 17 лет обязательно присутствие взрослого)
Дата выхода DVD/Blu-ray релиза: 23 октября 2008
Релиз от: 60kadr
Продолжительность: 01:46:44
Качество видео: BDRip
Перевод: Дублированный
Язык субтитров: Русский
Вид субтитров: Вшитые
Видео: AVC/H.264, 1024x432, ~3825 kbps
Audio 1: Dolby AC3 48000Hz stereo 192kbps [A: Дубляж [rus]
Audio 2: Dolby AC3 48000Hz stereo 256kbps [A: Двухголосый [rus]
Audio 3: Dolby AC3 44100Hz stereo 192kbps [A: Оригинал [fre]

Mediainfo:

Format : Matroska
Format version : Version 4 / Version 2
File size : 3.35 GiB
Duration : 1h 46mn
Overall bit rate : 4 498 Kbps
Encoded date : UTC 2016-06-19 13:00:10
Writing application : mkvmerge v9.2.0 ('Photograph') 64bit
Writing library : libebml v1.3.3 + libmatroska v1.4.4
Cover : Yes
Attachments : cover.png
Video
ID : 1
Format : AVC
Format/Info : Advanced Video Codec
Format profile : Baseline@L3.1
Format settings, CABAC : No
Format settings, ReFrames : 1 frame
Codec ID : V_MPEG4/ISO/AVC
Duration : 1h 46mn
Bit rate : 3 825 Kbps
Width : 1 024 pixels
Height : 432 pixels
Display aspect ratio : 2.40:1
Frame rate mode : Constant
Frame rate : 59.940 (59940/1000) fps
Color space : YUV
Chroma subsampling : 4:2:0
Bit depth : 8 bits
Scan type : Progressive
Bits/(Pixel*Frame) : 0.144
Stream size : 2.85 GiB (85%)
Title : vk.com/60kadr
Writing library : x264 core 146
Encoding settings : cabac=0 / ref=1 / deblock=1:0:0 / analyse=0x1:0x1 / me=dia / subme=1 / psy=1 / psy_rd=1.00:0.00 / mixed_ref=0 / me_range=16 / chroma_me=1 / trellis=0 / 8x8dct=0 / cqm=0 / deadzone=21,11 / fast_pskip=1 / chroma_qp_offset=0 / threads=4 / lookahead_threads=1 / sliced_threads=0 / nr=0 / decimate=1 / interlaced=0 / bluray_compat=0 / constrained_intra=0 / bframes=0 / weightp=0 / keyint=250 / keyint_min=25 / scenecut=40 / intra_refresh=0 / rc=crf / mbtree=0 / crf=23.0 / qcomp=0.60 / qpmin=0 / qpmax=69 / qpstep=4 / ip_ratio=1.40 / aq=1:1.00
Language : French
Default : No
Forced : No
Audio #1
ID : 2
Format : AC-3
Format/Info : Audio Coding 3
Format profile : Dolby Digital
Mode extension : CM (complete main)
Format settings, Endianness : Big
Codec ID : A_AC3
Duration : 1h 46mn
Bit rate mode : Constant
Bit rate : 192 Kbps
Channel(s) : 2 channels
Channel positions : Front: L R
Sampling rate : 48.0 KHz
Frame rate : 31.250 fps (1536 spf)
Compression mode : Lossy
Stream size : 147 MiB (4%)
Title : Дубляж
Language : Russian
Default : Yes
Forced : No
Audio #2
ID : 3
Format : AC-3
Format/Info : Audio Coding 3
Format profile : Dolby Digital
Mode extension : CM (complete main)
Format settings, Endianness : Big
Codec ID : A_AC3
Duration : 1h 46mn
Bit rate mode : Constant
Bit rate : 256 Kbps
Channel(s) : 2 channels
Channel positions : Front: L R
Sampling rate : 48.0 KHz
Frame rate : 31.250 fps (1536 spf)
Compression mode : Lossy
Stream size : 195 MiB (6%)
Title : Двухголосый
Language : Russian
Default : No
Forced : No
Audio #3
ID : 4
Format : AC-3
Format/Info : Audio Coding 3
Mode extension : CM (complete main)
Format settings, Endianness : Big
Codec ID : A_AC3
Duration : 1h 46mn
Bit rate mode : Constant
Bit rate : 192 Kbps
Channel(s) : 2 channels
Channel positions : Front: L R
Sampling rate : 44.1 KHz
Frame rate : 28.711 fps (1536 spf)
Compression mode : Lossy
Stream size : 147 MiB (4%)
Title : Оригинал
Language : French
Default : No
Forced : No
Text
ID : 5
Format : PGS
Muxing mode : zlib
Codec ID : S_HDMV/PGS
Codec ID/Info : Picture based subtitle format used on BDs/HD-DVDs
Duration : 1h 43mn
Bit rate : 28.9 Kbps
Count of elements : 3427
Stream size : 21.3 MiB (1%)
Title : Русский
Language : Russian
Default : No
Forced : No

Скриншоты

[Цитировать]



Показать сообщения:    

Текущее время: 29-Май 13:47

Часовой пояс: UTC + 6


Вы не можете начинать темы
Вы не можете отвечать на сообщения
Вы не можете редактировать свои сообщения
Вы не можете удалять свои сообщения
Вы не можете голосовать в опросах
Вы не можете прикреплять файлы к сообщениям
Вы не можете скачивать файлы

!ВНИМАНИЕ!
Сайт не предоставляет электронные версии произведений, а занимается лишь коллекционированием и каталогизацией ссылок, присылаемых и публикуемых на форуме нашими читателями. Если вы являетесь правообладателем какого-либо представленного материала и не желаете, чтобы ссылка на него находилась в нашем каталоге, свяжитесь с нами, и мы незамедлительно удалим ее. Файлы для обмена на трекере предоставлены пользователями сайта, и администрация не несет ответственности за их содержание. Просьба не заливать файлы, защищенные авторскими правами, а также файлы нелегального содержания!