[ Сегодня идет свободное скачивание без начисления Download ]


Статистика раздачи
Нет
 
   
 
Top  
 
 
Связь через Майами / Miami Connection Страна: США
Жанр: боевик, криминал
Год выпуска: 1987
Продолжительность: 01:26:32
Перевод: Профессиональный (двухголосый закадровый) НТВ+
Cубтитры: нет
Режиссер: Ю.Ким / Y.K. Kim, Ву-Санг Парк / Woo-sang Park
В ролях: Й.К. Ким, Винсент Хирш, Джозеф Диаманд, Морис Смит, Джон Лисон, Джон Лисон, Кэти Колье, Уильям Эгил, Си И Джо, У-сан Пак, Уильям П. Янг, Роберт Дж. Гудвин, Рики Морган, Роберт Ли, Майк Мэтьюз
Описание: Крупную сделку по продаже кокаина срывает нападение отряда черных ниндзя. Однако, захватив кокаин, они забывают про самое главное …деньги, а главарь банды, белый ниндзя, ошибок не прощает…

Исходник: Miami.Connection.1987.1080p.BluRay.x264-GECKOS
Качество видео: HDRip
Формат видео: AVI
Видео: 704x384 (1.83:1), 23.976 fps, XviD build 73 ~2215 kbps avg, 0.34 bit/pixel
Аудио: 48 kHz, AC3 Dolby Digital, 2/0 (L,R) ch, ~192 kbps
Размер: 1496.44 Mb

MediaInfo

General
Format : AVI
Format/Info : Audio Video Interleave
File size : 1.46 GiB
Duration : 1h 26mn
Overall bit rate : 2 417 Kbps
Writing application : VirtualDubMod 1.5.10.3 | www.virtualdub-fr.org || (build 2550/release)
Writing library : VirtualDubMod build 2550/release
Video
ID : 0
Format : MPEG-4 Visual
Format profile : Advanced Simple@L5
Format settings, BVOP : 1
Format settings, QPel : No
Format settings, GMC : No warppoints
Format settings, Matrix : Custom
Codec ID : XVID
Codec ID/Hint : XviD
Duration : 1h 26mn
Bit rate : 2 216 Kbps
Width : 704 pixels
Height : 384 pixels
Display aspect ratio : 1.85:1
Frame rate : 23.976 fps
Color space : YUV
Chroma subsampling : 4:2:0
Bit depth : 8 bits
Scan type : Progressive
Compression mode : Lossy
Bits/(Pixel*Frame) : 0.342
Stream size : 1.34 GiB (92%)
Writing library : XviD 73
Audio
ID : 1
Format : AC-3
Format/Info : Audio Coding 3
Mode extension : CM (complete main)
Format settings, Endianness : Big
Codec ID : 2000
Duration : 1h 26mn
Bit rate mode : Constant
Bit rate : 192 Kbps
Channel(s) : 2 channels
Channel positions : Front: L R
Sampling rate : 48.0 KHz
Bit depth : 16 bits
Compression mode : Lossy
Stream size : 119 MiB (8%)
Alignment : Split accross interleaves
Interleave, duration : 42 ms (1.00 video frame)
Interleave, preload duration : 500 ms

Скриншоты

Доп. информация

За перевод НТВ+ спасибо balanaza, за синхронизацию перевода огромное спасибо Нордер.

[Цитировать]



Показать сообщения:    

Текущее время: 07-Дек 11:41

Часовой пояс: UTC + 3


Вы не можете начинать темы
Вы не можете отвечать на сообщения
Вы не можете редактировать свои сообщения
Вы не можете удалять свои сообщения
Вы не можете голосовать в опросах
Вы не можете прикреплять файлы к сообщениям
Вы не можете скачивать файлы

!ВНИМАНИЕ!
Сайт не предоставляет электронные версии произведений, а занимается лишь коллекционированием и каталогизацией ссылок, присылаемых и публикуемых на форуме нашими читателями. Если вы являетесь правообладателем какого-либо представленного материала и не желаете, чтобы ссылка на него находилась в нашем каталоге, свяжитесь с нами, и мы незамедлительно удалим ее. Файлы для обмена на трекере предоставлены пользователями сайта, и администрация не несет ответственности за их содержание. Просьба не заливать файлы, защищенные авторскими правами, а также файлы нелегального содержания!