[ Сегодня идет свободное скачивание без начисления Download ]


Статистика раздачи
Нет
 
   
 
Top  
 
 
Привычка жениться / The Marrying Man Информация о фильме
Название: Привычка жениться
Оригинальное название: The Marrying Man
Год выхода: 1991
Жанр: мелодрама, комедия, музыка
Режиссер: Джерри Рис
В ролях: Ким Бейсингер, Алек Болдуин, Роберт Лоджа, Элизабет Шу, Арманд Ассанте, Пол Райзер, Фишер Стивенс, Питер Добсон, Стив Хитнер, Джереми Робертс, Биг Джон Стадд, Тони Лонго, Том Миланович, Тим Хаузер, Кэри Эдель, Марла Хисли, Карен Медак, Ребекка Стааб, Мелисса Бер, Пол Коллинз, Дэйв Флорек, Джеф Присирр, Тереза Гилмор, Алан Манделл, Элли Энрикез, Шанти Кан, Кларк Гордон, Гретчен Уайлер, Сьюзэн Келлерман, Янни Бренн, Джо Беллан, Дон Кифер, Жуль А. Эпштейн, Робин Фрейтс, Кристен Клоук
О фильме:
У миллионера Чарльза Перла есть вкус, стиль, обаяние - все, что нужно покорителю женских сердец. Вскоре дочь самого влиятельного человека в Голливуде выйдет за него замуж. Но по дороге к алтарю незадачливый жених встречает девушку своей мечты. Певица Вики Андерсон красива, соблазнительна и... согласна стать его женой. Чарльз снова возвращается под венец, не подозревая, что вскоре станет здесь частым гостем…

Страна: США
Студия: Hollywood Pictures, Odyssey Motion Pictures, Silver Screen Partners IV
Продолжительность: 01:56:23
Перевод: Дублированный, профессиональный (многоголосый закадровый), авторский (одноголосый закадровый), любительский (одноголосый закадровый)
Файл
Кодек: h.264
Качество: BDRip-AVC
Видео: MPEG-4 AVC, 3149 Кбит/с, 1024x576, 23.976 кадр/с
Звук:
• №1: Русский (AC3, 2 ch, 192 Кбит/с) Дублированный (Спасибо nic111 и alex7691)
• №2: Русский (AC3, 2 ch, 192 Кбит/с) Профессиональный многоголосый [Видеосервис]
• №3: Русский (АС3, 6 ch, 384 Кбит/с) Профессиональный многоголосый [Liga DVD]
• №4: Русский (АС3, 6 ch, 384 Кбит/с) Профессиональный многоголосый (FDV)
• №5: Русский (AC3, 2 ch, 192 Кбит/с) Авторский одноголосый [Алексей Михалев]
• №6: Русский (AC3, 2 ch, 192 Кбит/с) Любительский одноголосый [неизвестный]
• №7: Английский (АС3, 6 ch, 384 Кбит/с)
Субтитры: Английские

MediaIhfo

Полное имя : Privichka.zhenitsya.1991.x264.BDRip.(AVC).0ptimus.mkv
Формат : Matroska
Версия формата : Version 4 / Version 2
Размер файла : 4,12 Гбайт
Продолжительность : 1 ч. 56 м.
Общий поток : 5072 Кбит/сек
Название фильма : Привычка жениться | The Marrying Man [1991] -=BDRip (AVC) by 0ptimus=-
Дата кодирования : UTC 2013-02-14 10:07:38
Программа кодирования : mkvmerge v6.0.0 ('Coming Up For Air') built on Jan 20 2013 09:52:00
Библиотека кодирования : libebml v1.3.0 + libmatroska v1.4.0
Видео
Идентификатор : 1
Формат : AVC
Формат/Информация : Advanced Video Codec
Профиль формата : [email protected]
Параметр CABAC формата : Да
Параметр ReFrames формата : 8 кадров
Идентификатор кодека : V_MPEG4/ISO/AVC
Продолжительность : 1 ч. 56 м.
Битрейт : 3149 Кбит/сек
Ширина : 1024 пикселя
Высота : 576 пикселей
Соотношение сторон : 16:9
Режим частоты кадров : Постоянный
Частота кадров : 23,976 кадра/сек
Цветовое пространство : YUV
Субдискретизация насыщенности : 4:2:0
Битовая глубина : 8 бит
Тип развёртки : Прогрессивная
Бит/(Пиксели*Кадры) : 0.223
Размер потока : 2,48 Гбайт (60%)
Заголовок : Rip by 0ptimus
Библиотека кодирования : x264 core 129 r2245 bc13772
Настройки программы : cabac=1 / ref=8 / deblock=1:-3:-3 / analyse=0x3:0x113 / me=umh / subme=11 / psy=1 / psy_rd=1.00:0.20 / mixed_ref=1 / me_range=32 / chroma_me=1 / trellis=2 / 8x8dct=1 / cqm=0 / deadzone=21,11 / fast_pskip=0 / chroma_qp_offset=-3 / threads=4 / lookahead_threads=1 / sliced_threads=0 / nr=0 / decimate=0 / interlaced=0 / bluray_compat=0 / constrained_intra=0 / bframes=12 / b_pyramid=2 / b_adapt=2 / b_bias=0 / direct=3 / weightb=1 / open_gop=0 / weightp=2 / keyint=240 / keyint_min=23 / scenecut=40 / intra_refresh=0 / rc_lookahead=40 / rc=2pass / mbtree=0 / bitrate=3149 / ratetol=1.0 / qcomp=0.60 / qpmin=0 / qpmax=69 / qpstep=4 / cplxblur=20.0 / qblur=0.5 / vbv_maxrate=50000 / vbv_bufsize=50000 / nal_hrd=none / ip_ratio=1.40 / pb_ratio=1.30 / aq=1:1.00
Язык : English
Default : Да
Forced : Да
Аудио #1
Идентификатор : 2
Формат : AC-3
Формат/Информация : Audio Coding 3
Расширение режима : CM (complete main)
Параметр Endianness формата : Big
Идентификатор кодека : A_AC3
Продолжительность : 1 ч. 56 м.
Вид битрейта : Постоянный
Битрейт : 192 Кбит/сек
Каналы : 2 канала
Расположение каналов : Front: L R
Частота : 48,0 КГц
Битовая глубина : 16 бит
Метод сжатия : С потерями
Размер потока : 160 Мбайт (4%)
Заголовок : Дублированный
Язык : Russian
Default : Да
Forced : Да
Аудио #2
Идентификатор : 3
Формат : AC-3
Формат/Информация : Audio Coding 3
Расширение режима : CM (complete main)
Параметр Endianness формата : Big
Идентификатор кодека : A_AC3
Продолжительность : 1 ч. 56 м.
Вид битрейта : Постоянный
Битрейт : 192 Кбит/сек
Каналы : 2 канала
Расположение каналов : Front: L R
Частота : 48,0 КГц
Битовая глубина : 16 бит
Метод сжатия : С потерями
Размер потока : 160 Мбайт (4%)
Заголовок : Многоголосый закадровый [Видеосервис]
Язык : Russian
Default : Нет
Forced : Нет
Аудио #3
Идентификатор : 4
Формат : AC-3
Формат/Информация : Audio Coding 3
Расширение режима : CM (complete main)
Параметр Endianness формата : Big
Идентификатор кодека : A_AC3
Продолжительность : 1 ч. 56 м.
Вид битрейта : Постоянный
Битрейт : 384 Кбит/сек
Каналы : 6 каналов
Расположение каналов : Front: L C R, Side: L R, LFE
Частота : 48,0 КГц
Битовая глубина : 16 бит
Метод сжатия : С потерями
Размер потока : 320 Мбайт (8%)
Заголовок : Многоголосый закадровый [Liga DVD]
Язык : Russian
Default : Нет
Forced : Нет
Аудио #4
Идентификатор : 5
Формат : AC-3
Формат/Информация : Audio Coding 3
Расширение режима : CM (complete main)
Параметр Endianness формата : Big
Идентификатор кодека : A_AC3
Продолжительность : 1 ч. 56 м.
Вид битрейта : Постоянный
Битрейт : 384 Кбит/сек
Каналы : 6 каналов
Расположение каналов : Front: L C R, Side: L R, LFE
Частота : 48,0 КГц
Битовая глубина : 16 бит
Метод сжатия : С потерями
Размер потока : 320 Мбайт (8%)
Заголовок : Многоголосый закадровый [FDV]
Язык : Russian
Default : Нет
Forced : Нет
Аудио #5
Идентификатор : 6
Формат : AC-3
Формат/Информация : Audio Coding 3
Расширение режима : CM (complete main)
Параметр Endianness формата : Big
Идентификатор кодека : A_AC3
Продолжительность : 1 ч. 56 м.
Вид битрейта : Постоянный
Битрейт : 192 Кбит/сек
Каналы : 2 канала
Расположение каналов : Front: L R
Частота : 48,0 КГц
Битовая глубина : 16 бит
Метод сжатия : С потерями
Размер потока : 160 Мбайт (4%)
Заголовок : Авторский [Алексей Михалев]
Язык : Russian
Default : Нет
Forced : Нет
Аудио #6
Идентификатор : 7
Формат : AC-3
Формат/Информация : Audio Coding 3
Расширение режима : CM (complete main)
Параметр Endianness формата : Big
Идентификатор кодека : A_AC3
Продолжительность : 1 ч. 56 м.
Вид битрейта : Постоянный
Битрейт : 192 Кбит/сек
Каналы : 2 канала
Расположение каналов : Front: L R
Частота : 48,0 КГц
Битовая глубина : 16 бит
Метод сжатия : С потерями
Размер потока : 160 Мбайт (4%)
Заголовок : Любительский
Язык : Russian
Default : Нет
Forced : Нет
Аудио #7
Идентификатор : 8
Формат : AC-3
Формат/Информация : Audio Coding 3
Расширение режима : CM (complete main)
Параметр Endianness формата : Big
Идентификатор кодека : A_AC3
Продолжительность : 1 ч. 56 м.
Вид битрейта : Постоянный
Битрейт : 384 Кбит/сек
Каналы : 6 каналов
Расположение каналов : Front: L C R, Side: L R, LFE
Частота : 48,0 КГц
Битовая глубина : 16 бит
Метод сжатия : С потерями
Размер потока : 320 Мбайт (8%)
Язык : English
Default : Нет
Forced : Нет
Текст
Идентификатор : 9
Формат : UTF-8
Идентификатор кодека : S_TEXT/UTF8
Идентификатор кодека/Информация : UTF-8 Plain Text
Default : Нет
Forced : Нет
Меню
00:00:00.000 : en:Chapter 01
00:07:09.428 : en:Chapter 02
00:15:27.927 : en:Chapter 03
00:23:08.011 : en:Chapter 04
00:34:23.686 : en:Chapter 05
00:39:42.004 : en:Chapter 06
00:50:00.998 : en:Chapter 07
00:56:50.407 : en:Chapter 08
01:06:19.600 : en:Chapter 09
01:13:32.032 : en:Chapter 10
01:22:24.939 : en:Chapter 11
01:32:10.149 : en:Chapter 12
01:37:34.849 : en:Chapter 13
01:40:02.997 : en:Chapter 14
01:45:27.946 : en:Chapter 15

x264 log

x264 [info]: frame I:1109 Avg QP:16.35 size: 75704
x264 [info]: frame P:29509 Avg QP:18.45 size: 29275
x264 [info]: frame B:136819 Avg QP:20.10 size: 13163

Скриншоты



[Цитировать]



Показать сообщения:    

Текущее время: 06-Дек 13:10

Часовой пояс: UTC + 3


Вы не можете начинать темы
Вы не можете отвечать на сообщения
Вы не можете редактировать свои сообщения
Вы не можете удалять свои сообщения
Вы не можете голосовать в опросах
Вы не можете прикреплять файлы к сообщениям
Вы не можете скачивать файлы

!ВНИМАНИЕ!
Сайт не предоставляет электронные версии произведений, а занимается лишь коллекционированием и каталогизацией ссылок, присылаемых и публикуемых на форуме нашими читателями. Если вы являетесь правообладателем какого-либо представленного материала и не желаете, чтобы ссылка на него находилась в нашем каталоге, свяжитесь с нами, и мы незамедлительно удалим ее. Файлы для обмена на трекере предоставлены пользователями сайта, и администрация не несет ответственности за их содержание. Просьба не заливать файлы, защищенные авторскими правами, а также файлы нелегального содержания!