[ Сегодня идет свободное скачивание без начисления Download ]


Статистика раздачи
Качаю: [ 1 ]
Скачал: [ 1 ]
 
   
 
Top  
 
 
Берега [01-07 из 07] (1977) Год выпуска: 1977
Страна: СССР
Студия: Грузия-фильм
Жанр: боевик, драма
Продолжительность: 7 серий ~ по 1 ч. 10 мин.
Перевод: не требуется
Субтитры: нет
Оригинальная аудиодорожка: русский
Режиссер: Гизо Габескирия, Григорий Лордкипанидзе
В ролях:
Отар Мегвинетухуцеси, Тенгиз Арчвадзе, Юри Ярвет, Григорий Цитайшвили, Карло Саканделидзе, Акакий Васадзе, Владимир Солодников, Софико Чиаурели, Джемал Сихарулидзе, Георгий (Гоги) Харабадзе, Кетеван Кикнадзе, Григол Талаквадзе, Гурам Пирцхалава, Имеда Кахиани, Ипполит Хвичия, Руслан Микаберидзе, Малхаз Горгиладзе, Георгий Геловани, Гиви Берикашвили, Зураб Капианидзе, Гурам Сагарадзе, Давид (Додо) Абашидзе, Василий Чхаидзе, Сесилия Такаишвили, Зураб Лаперадзе, Ия Хобуа, Отар Коберидзе, Лия Элиава, Георгий Гегечкори, Иванэ (Вано) Сакварелидзе, Лео (Леван) Антадзе, Л. Амираджиби, Бичико Андроникашвили, Ефим Байковский, Малхаз Бебуришвили, Михаил Вашадзе, Гуранда Габуния, Нато Гагнидзе, Иосиф (Сосо) Гогичайшвили, Владимир Гуляев, Бухути Закариадзе, Отар Зауташвили, Лиа Капанадзе, Зинаида Кверенчхиладзе, Мамука Купарадзе, Нодар Мгалоблишвили, Заза Микашавидзе, Виктор Нинидзе, Леван Пилпани, Важа Пирцхалаишвили, Елена Сакварелидзе, Анзор Урдия, Бесарион (Бесо) Хидешели, Борис Ципурия, Варлам Цуладзе, Автандил Верулеишвили, Иза Гигошвили, Бондо Гогинава, Александр Иоселиани, Давид Окросцваридзе, Марлен Эгутия, Владимир Брегвадзе, Татули Долидзе, Георгий Сагарадзе, Тариэль Сакварелидзе, Темур (Теимураз) Цикоридзе, Василий Шавгулидзе, Флора (Феодосия) Шедания, Гигла Эбралидзе, Ираклий Кокрашвили...
Полный список актёров
Описание:
Телесериал по роману Ч. Амирэджиба «Дата Туташхиа».
Много лет человек по имени Дата Туташхиа скитался по миру. Он пытался делать добро, но убедившись, что оно не дает добрых всходов, разочаровался в людях. И тогда он начал борьбу со злом, но и его искоренить не смог. Так и жил Дата без семьи и дома, скрываясь от властей, теряя близких и друзей, в концов концов приняв смерть от собственного сына.- -Исходник: DVB
Качество видео: SATRip-AVC
Формат видео: MKV
Видео: 704->768х576 (4:3), 25 fps, H264 ~ 1800 kbps avg, 0.178 bit/pixel
Аудио: 48 kHz, Dolby Digital AC3 2.0, 192 kbps

MediaInfo

Общее
Полное имя : Berega.1977.SATRip-AVC_[New-team]_by_AVP_Studio5.mkv
Формат : Matroska
Версия формата : Version 2
Размер файла : 900 Мбайт
Продолжительность : 1 ч. 3 м.
Общий поток : 1993 Кбит/сек
Дата кодирования : UTC 2015-11-16 18:56:28
Программа кодирования : mkvmerge v6.1.0 ('Old Devil') built on Mar 4 2013 09:10:42
Библиотека кодирования : libebml v1.3.0 + libmatroska v1.4.0
Видео
Идентификатор : 1
Формат : AVC
Формат/Информация : Advanced Video Codec
Профиль формата : High@L4.1
Параметр CABAC формата : Да
Параметр ReFrames формата : 10 кадров
Идентификатор кодека : V_MPEG4/ISO/AVC
Продолжительность : 1 ч. 3 м.
Битрейт : 1800 Кбит/сек
Ширина : 704 пикселя
Высота : 576 пикселей
Соотношение сторон : 4:3
Режим частоты кадров : Постоянный
Частота кадров : 25,000 кадров/сек
Стандарт вещания : PAL
Цветовое пространство : YUV
Субдискретизация насыщенности : 4:2:0
Битовая глубина : 8 бит
Тип развёртки : Прогрессивная
Бит/(Пиксели*Кадры) : 0.178
Размер потока : 796 Мбайт (88%)
Библиотека кодирования : x264 core 148 r2597 e86f3a1
Настройки программы : cabac=1 / ref=10 / deblock=1:-2:-1 / analyse=0x3:0x113 / me=umh / subme=10 / psy=1 / psy_rd=1.00:0.00 / mixed_ref=1 / me_range=32 / chroma_me=1 / trellis=2 / 8x8dct=1 / cqm=0 / deadzone=21,11 / fast_pskip=1 / chroma_qp_offset=-2 / threads=6 / lookahead_threads=1 / sliced_threads=0 / nr=0 / decimate=0 / interlaced=0 / bluray_compat=0 / constrained_intra=0 / bframes=8 / b_pyramid=2 / b_adapt=2 / b_bias=0 / direct=3 / weightb=1 / open_gop=0 / weightp=2 / keyint=250 / keyint_min=25 / scenecut=40 / intra_refresh=0 / rc=2pass / mbtree=0 / bitrate=1800 / ratetol=1.0 / qcomp=0.60 / qpmin=0 / qpmax=69 / qpstep=4 / cplxblur=20.0 / qblur=0.5 / ip_ratio=1.40 / pb_ratio=1.30 / aq=1:1.00
Default : Да
Forced : Нет
Аудио
Идентификатор : 2
Формат : AC-3
Формат/Информация : Audio Coding 3
Расширение режима : CM (complete main)
Параметр Endianness формата : Big
Идентификатор кодека : A_AC3
Продолжительность : 1 ч. 3 м.
Вид битрейта : Постоянный
Битрейт : 192 Кбит/сек
Каналы : 2 канала
Расположение каналов : Front: L R
Частота : 48,0 КГц
Метод сжатия : С потерями
Размер потока : 86,7 Мбайт (10%)
Default : Да
Forced : Нет

Скриншоты

[Цитировать]



Показать сообщения:    

Текущее время: 09-Дек 14:37

Часовой пояс: UTC + 3


Вы не можете начинать темы
Вы не можете отвечать на сообщения
Вы не можете редактировать свои сообщения
Вы не можете удалять свои сообщения
Вы не можете голосовать в опросах
Вы не можете прикреплять файлы к сообщениям
Вы не можете скачивать файлы

!ВНИМАНИЕ!
Сайт не предоставляет электронные версии произведений, а занимается лишь коллекционированием и каталогизацией ссылок, присылаемых и публикуемых на форуме нашими читателями. Если вы являетесь правообладателем какого-либо представленного материала и не желаете, чтобы ссылка на него находилась в нашем каталоге, свяжитесь с нами, и мы незамедлительно удалим ее. Файлы для обмена на трекере предоставлены пользователями сайта, и администрация не несет ответственности за их содержание. Просьба не заливать файлы, защищенные авторскими правами, а также файлы нелегального содержания!