[ Сегодня идет свободное скачивание без начисления Download ]


Статистика раздачи
Нет
 
   
 
Top  
 
 
Навеки твоя / Hum Dil De Chuke Sanam«In this world... where desire rules the heart, you will discover... love is the flame that lights up the soul»
Год выпуска: 1999
Страна: Индия, Венгрия
Производство: Bhansali Films, Jhamu Sughand Productions
Жанр: Мюзикл, драма, мелодрама, комедия
Режиссер: Санджай Лила Бхансали
В ролях: Салман Кхан, Аджай Девган, Айшвария Рай, Зохра Сегал, Викрам Гокхале, Смита Джайкар, Рекха Рао, Раджив Верма, Кенет Десаи, Ганшьям Наик
Перевод: Профессиональный (многоголосый, закадровый)
Субтитры: Отсутствуют
Описание: Айшварья Рай сыграла в фильме роль красавицы Нандини — любимой дочери преподавателя музыки Пандита Дарбара. Однажды в их доме останавливается студент Самир, изучающий национальную музыку. Самир и Нандини страстно влюбляются друг в друга.
Но отец, узнавший, что Самира интересует не только музыка, выгоняет его из дома, а дочь выдает замуж за адвоката Ванраджа, который искренне любит Нандини. После свадьбы Ванрадж узнает о романе своей супруги. Понимая, что Нандини страдает, он предлагает ей казалось бы невозможное: отправиться в Италию на поиски ее возлюбленного…


Качество: SATRip
Продолжительность: 03:08:06
Формат: AVI
Видео кодек: XviD
Аудио кодек: AC3
Видео: 720 x 288(2.500), 23,976 fps, XviD ~1 901 kbps avg, 0.382 bit/pixel
Аудио: 48 kHz, AC3, 6 channels, ~384 kbps avg
Премьера (мир): 18 июня 1999

Media Info

General
Complete name                  : D:\TORRENT\Навеки твоя.1999.DVDRip..avi
Format                         : AVI
Format/Info                    : Audio Video Interleave
Format profile                 : OpenDML
File size                      : 3.02 GiB
Duration                       : 3h 8mn
Overall bit rate               : 2 295 Kbps
Director                       : http://files-x.com
Writing application            : VirtualDubMod 1.5.10.3 | www.virtualdub-fr.org || (build 2550/release)
Video
ID                             : 0
Format                         : MPEG-4 Visual
Format profile                 : Advanced [email protected]
Format settings, BVOP          : 1
Format settings, QPel          : No
Format settings, GMC           : No warppoints
Format settings, Matrix        : Default (H.263)
Codec ID                       : XVID
Codec ID/Hint                  : XviD
Duration                       : 3h 8mn
Bit rate                       : 1 901 Kbps
Width                          : 720 pixels
Height                         : 288 pixels
Display aspect ratio           : 2.500
Frame rate                     : 23.976 fps
Color space                    : YUV
Chroma subsampling             : 4:2:0
Bit depth                      : 8 bits
Scan type                      : Progressive
Compression mode               : Lossy
Bits/(Pixel*Frame)             : 0.382
Stream size                    : 2.50 GiB (83%)
Writing library                : XviD 1.2.1 (UTC 2008-12-04)
Audio
ID                             : 1
Format                         : AC-3
Format/Info                    : Audio Coding 3
Mode extension                 : CM (complete main)
Format settings, Endianness    : Big
Codec ID                       : 2000
Duration                       : 3h 8mn
Bit rate mode                  : Constant
Bit rate                       : 384 Kbps
Channel(s)                     : 6 channels
Channel positions              : Front: L C R, Side: L R, LFE
Sampling rate                  : 48.0 KHz
Bit depth                      : 16 bits
Compression mode               : Lossy
Stream size                    : 517 MiB (17%)
Alignment                      : Split accross interleaves
Interleave, duration           : 42 ms (1.00 video frame)
Interleave, preload duration   : 500 ms

[Цитировать]



Показать сообщения:    

Текущее время: 05-Дек 19:40

Часовой пояс: UTC + 3


Вы не можете начинать темы
Вы не можете отвечать на сообщения
Вы не можете редактировать свои сообщения
Вы не можете удалять свои сообщения
Вы не можете голосовать в опросах
Вы не можете прикреплять файлы к сообщениям
Вы не можете скачивать файлы

!ВНИМАНИЕ!
Сайт не предоставляет электронные версии произведений, а занимается лишь коллекционированием и каталогизацией ссылок, присылаемых и публикуемых на форуме нашими читателями. Если вы являетесь правообладателем какого-либо представленного материала и не желаете, чтобы ссылка на него находилась в нашем каталоге, свяжитесь с нами, и мы незамедлительно удалим ее. Файлы для обмена на трекере предоставлены пользователями сайта, и администрация не несет ответственности за их содержание. Просьба не заливать файлы, защищенные авторскими правами, а также файлы нелегального содержания!