[ Сегодня идет свободное скачивание без начисления Download ]


Статистика раздачи
Нет
 
   
 
Top  
 
 
Бен-Гур / Ben-Hur (2016) WEBRip - Производство: США / Film Production Consultants, Metro-Goldwyn-Mayer (MGM), Paramount Pictures Film Production Consultants, Metro-Goldwyn-Mayer (MGM), Paramount Pictures
Жанр: История, Приключения, Драма
Режиссер: Тимур Бекмамбетов
Актеры: Джек Хастон, Морган Фримен, Тоби Кеббелл, Халук Бильгинер, Джеймс Космо, Пилу Асбек
Описание:
История Бен-Гура, потомка знатного иудейского рода, который был предан своим лучшим другом-римлянином. Проведя много лет в рабстве на римских галерах, Бен-Гур в итоге получает возможность вернуться на родину и отомстить обидчику.

Возраст: 16+ (зрителям, достигшим 16 лет)
Дата мировой премьеры: 10 августа 2016
Дата российской премьеры: 18 августа 2016, «Централ Партнершип»
Продолжительность: 00:02::35
Качество видео: WEBRip
Перевод: Дублированный
Видео: AVC, 1920x1080 (16:9), 24.000 fps, 18.0 Mbps (0.362 bit/pixel)
Аудио: AC-3, 48.0 KHz, 6 ch, 448 Kbps, CBR

Mediainfo:

General
Unique ID                   : 203506917233468824137262698448944406890 (0x991A01AF29170BCC98DF0B46D7E4A16A)
Complete name               : D:\ben-hur2016_trailer_rus_HD.mkv
Format                      : Matroska
Format version              : Version 4 / Version 2
File size                   : 343 MiB
Duration                    : 2mn 35s
Overall bit rate            : 18.5 Mbps
Writing application         : Lavf55.37.101
Writing library             : Lavf55.37.101 / Lavf55.37.101
Video
ID                          : 1
Format                      : AVC
Format/Info                 : Advanced Video Codec
Format profile              : [url=mailto:[email protected]][email protected][/url]
Format settings, CABAC      : No
Format settings, ReFrames   : 1 frame
Codec ID                    : V_MPEG4/ISO/AVC
Duration                    : 2mn 35s
Bit rate                    : 18.0 Mbps
Width                       : 1 920 pixels
Height                      : 1 080 pixels
Display aspect ratio        : 16:9
Frame rate mode             : Constant
Frame rate                  : 24.000 fps
Color space                 : YUV
Chroma subsampling          : 4:2:0
Bit depth                   : 8 bits
Scan type                   : Progressive
Bits/(Pixel*Frame)          : 0.362
Stream size                 : 328 MiB (96%)
Writing library             : x264 core 119
Encoding settings           : cabac=0 / ref=1 / deblock=0:0:0 / analyse=0:0 / me=dia / subme=0 / psy=1 / psy_rd=1.00:0.00 / mixed_ref=0 / me_range=16 / chroma_me=1 / trellis=0 / 8x8dct=0 / cqm=0 / deadzone=21,11 / fast_pskip=1 / chroma_qp_offset=0 / threads=4 / sliced_threads=0 / nr=0 / decimate=1 / interlaced=0 / bluray_compat=0 / constrained_intra=0 / bframes=0 / weightp=0 / keyint=250 / keyint_min=24 / scenecut=0 / intra_refresh=0 / rc=abr / mbtree=0 / bitrate=18000 / ratetol=1.0 / qcomp=0.60 / qpmin=0 / qpmax=69 / qpstep=4 / ip_ratio=1.40 / aq=0
Default                     : Yes
Forced                      : No
Encoded date                : UTC 2016-06-05 02:51:45
HANDLER_NAME                : ISO Media file produced by Google Inc.
Audio
ID                          : 2
Format                      : AC-3
Format/Info                 : Audio Coding 3
Mode extension              : CM (complete main)
Format settings, Endianness : Big
Codec ID                    : A_AC3
Duration                    : 2mn 35s
Bit rate mode               : Constant
Bit rate                    : 448 Kbps
Channel(s)                  : 6 channels
Channel positions           : Front: L C R, Side: L R, LFE
Sampling rate               : 48.0 KHz
Frame rate                  : 31.250 fps (1536 spf)
Bit depth                   : 32 bits
Compression mode            : Lossy
Delay relative to video     : -5ms
Stream size                 : 8.31 MiB (2%)
Default                     : Yes
Forced                      : No
Encoded date                : UTC 2016-06-05 02:51:45
HANDLER_NAME                : ISO Media file produced by Google Inc.
Скриншоты:

[Цитировать]



Показать сообщения:    

Текущее время: 06-Дек 03:55

Часовой пояс: UTC + 3


Вы не можете начинать темы
Вы не можете отвечать на сообщения
Вы не можете редактировать свои сообщения
Вы не можете удалять свои сообщения
Вы не можете голосовать в опросах
Вы не можете прикреплять файлы к сообщениям
Вы не можете скачивать файлы

!ВНИМАНИЕ!
Сайт не предоставляет электронные версии произведений, а занимается лишь коллекционированием и каталогизацией ссылок, присылаемых и публикуемых на форуме нашими читателями. Если вы являетесь правообладателем какого-либо представленного материала и не желаете, чтобы ссылка на него находилась в нашем каталоге, свяжитесь с нами, и мы незамедлительно удалим ее. Файлы для обмена на трекере предоставлены пользователями сайта, и администрация не несет ответственности за их содержание. Просьба не заливать файлы, защищенные авторскими правами, а также файлы нелегального содержания!