[ Сегодня идет свободное скачивание без начисления Download ]


Статистика раздачи
Нет
 
   
 
Top  
 
 
Коломбиана / Colombiana«Месть бывает прекрасна»
Год выпуска: 2011
Страна: Франция
Производство: A.J.O.Z. Films, Canal+ [fr], Cin? Cin?mas, Europa Corp. , Grive Productions, TF1 Films Production
Жанр: боевик, триллер, криминал, драма
Режиссер: Оливье Мегатон
В ролях: Зои Салдана, Хорди Молья, Ленни Джеймс, Амандла Стенберг, Майкл Вартан, Клифф Кёртис, Бету Бенитес, Джесси Боррего, Синтия Аддай-Робинсон, Энджел Гарница
Перевод: Профессиональный (многоголосый, закадровый)
Субтитры: Отсутствуют
Описание: Кат было всего 9, когда на ее глазах неизвестные жестоко убили ее родителей. Девочка сумела убежать от бандитов и найти убежище в Чикаго у своего дяди. Теперь Кат профессиональный убийца. Во что бы то ни стало она должна распутать клубок давнего преступления и отомстить за смерть родителей. Все следы ведут к колумбийскому наркобарону Дону Лусиа. Единственная нить, соединяющая девушку-убийцу с миром обычных людей — это ее возлюбленный, который не догадывается, чем на самом деле занимается его подружка…
[kp]523122[/kp] [imdb]tt1657507[/imdb]
Качество: HDRip
Продолжительность: 01:47:49
Формат: AVI
Видео кодек: XviD
Аудио кодек: MPEG Audio
Видео: 720x304 (2.37:1), 29.970 fps, XviD build 50, 760 kbps avg, 0.12 bit/pixel
Аудио: 44.100 kHz, MPEG Layer 3, 2 ch, 128 kbps avg

Media Info

идео
Идентификатор                    : 0
Формат                           : MPEG-4 Visual
Профиль формата                  : Advanced Simple@L5
Параметр BVOP формата            : 2
Параметр QPel формата            : Нет
Параметр GMC формата             : Без точки перехода
Параметр матрицы формата         : Default (H.263)
Идентификатор кодека             : XVID
Идентификатор кодека/Подсказка   : XviD
Продолжительность                : 1 ч. 47 м.
Битрейт                          : 760 Кбит/сек
Ширина                           : 720 пикс.
Высота                           : 304 пикс.
Соотношение сторон               : 2,35:1
Частота кадров                   : 29,970 кадр/сек
Цветовое пространство            : YUV
Подвыборка цветности             : 4:2:0
Битовая глубина                  : 8 бит
Тип развёртки                    : Прогрессивная
Метод сжатия                     : С потерями
Бит/(Пиксели*Кадры)              : 0.116
Размер потока                    : 586 Мбайт (84%)
Библиотека кодирования           : XviD 1.2.1 (UTC 2008-12-04)
Аудио
Идентификатор                    : 1
Формат                           : MPEG Audio
Версия формата                   : Version 1
Профиль формата                  : Layer 3
Режим                            : Joint stereo
Расширение режима                : MS Stereo
Идентификатор кодека             : 55
Идентификатор кодека/Подсказка   : MP3
Продолжительность                : 1 ч. 47 м.
Вид битрейта                     : Постоянный
Битрейт                          : 128 Кбит/сек
Каналы                           : 2 канала
Частота                          : 44,1 КГц
Метод сжатия                     : С потерями
Размер потока                    : 98,7 Мбайт (14%)
Выравнивание                     : Разделение по промежуткам
Продолжительность промежутка     : 33  мс. (1,00 видеокадр)
Время предзагрузки промежутка    : 500 ms
Библиотека кодирования           : LAME3.98 (alpha)U)Zѓ
[th]http://torrentsclub.org/pictures/c3d3503e381ac90dd7...1c29fa1.jpg[/th]
[th]http://torrentsclub.org/pictures/25bf1ae485fdbbc2fb...39b73aa.jpg[/th]
[th]http://torrentsclub.org/pictures/49f5def7029c21b594...87145af.jpg[/th]


Последний раз редактировалось: Hunter (2013-01-14 21:49), всего редактировалось 1 раз

[Цитировать]

Топик был перенесен из форума Архив в форум Боевик


Des



Показать сообщения:    

Текущее время: 09-Дек 01:08

Часовой пояс: UTC + 3


Вы не можете начинать темы
Вы не можете отвечать на сообщения
Вы не можете редактировать свои сообщения
Вы не можете удалять свои сообщения
Вы не можете голосовать в опросах
Вы не можете прикреплять файлы к сообщениям
Вы не можете скачивать файлы

!ВНИМАНИЕ!
Сайт не предоставляет электронные версии произведений, а занимается лишь коллекционированием и каталогизацией ссылок, присылаемых и публикуемых на форуме нашими читателями. Если вы являетесь правообладателем какого-либо представленного материала и не желаете, чтобы ссылка на него находилась в нашем каталоге, свяжитесь с нами, и мы незамедлительно удалим ее. Файлы для обмена на трекере предоставлены пользователями сайта, и администрация не несет ответственности за их содержание. Просьба не заливать файлы, защищенные авторскими правами, а также файлы нелегального содержания!