[ Сегодня идет свободное скачивание без начисления Download ]


Статистика раздачи
Качаю: [ 1 ]
 
   
 
Top  
 
 
Hellfest Open Air (2016) HDTV - Производство: ARTE
Жанр: Rock, Metal
Описание:
Выступления звезд Rock and Metal музыки на ежегодном рок фестивале Hellfest проходящем в этом уикенд june 17-19, 2016 в французском городе Клисон
Треклист:
01. Twisted Sister - Destroyer
02. Twisted Sister - You Can't Stop Rock 'n' Roll
03. Rammstein - Ramm 4
04. Rammstein - Reise, Reise
05. Rammstein - Du riechst so gut
06. Foreigner - Juke Box Hero
07. Napalm Death - ?
08. Twisted Sister - Shoot 'Em Down (with Phil Campbell)
09. Turbonegro - Special Education
10. Turbonegro - I Got Erection
11. Bullet for My Valentine - Your Betrayal
12. Korpiklaani - Rauta
13. Dropkick Murphys - I'm Shipping Up To Boston
14. Dropkick Murphys - The Warrior's Code

Продолжение:

15. Disrurbed - The Light
16. The Offspring - The Kids Aren't Arright
17. Joe Satriani - ?
18. Sick Of It All - Step Down
19. Within Temptation - Mother Earth
20. Within Temptation - Paradise (What About Us?) (with Tarja Turunen)
21. Korn - Blind
Продолжительность: 01:43:45
Качество видео: HDTV
Видео: AVC/H.264, 1280x720, ~12,9 mbps
Аудио: AC3, 6 ch, 448 Kbps, CBR
Аудио #1: AC-3, 48.0 KHz, 6 ch, 448 Kbps, CBR (Multiple languages)
Аудио #2: MP2, 48.0 KHz, 2 ch, 192 Kbps, CBR (German)
Аудио #3: MP2, 48.0 KHz, 2 ch, 192 Kbps, CBR (French)
Аудио #4: AC-3, 48.0 KHz, 2 ch, 448 Kbps, CBR (English)
Аудио #5: MP2, 48.0 KHz, 2 ch, 192 Kbps, CBR

Mediainfo:

Общее
Идентификатор                            : 1 (0x1)
Полное имя                               : C:\Раздача\Клипы\Hellfest Open Air 2016.ts
Формат                                   : MPEG-TS
Размер файла                             : 10,9 Гбайт
Продолжительность                        : 1 ч. 43 м.
Режим общего битрейта                    : Переменный
Общий поток                              : 15,1 Мбит/сек
Видео
Идентификатор                            : 5111 (0x13F7)
Идентификатор меню                       : 10302 (0x283E)
Формат                                   : AVC
Формат/Информация                        : Advanced Video Codec
Профиль формата                          : High@L4
Параметр CABAC формата                   : Да
Параметр ReFrames формата                : 4 кадра
Идентификатор кодека                     : 27
Продолжительность                        : 1 ч. 43 м.
Битрейт                                  : 12,9 Мбит/сек
Ширина                                   : 1280 пикселей
Высота                                   : 720 пикселей
Соотношение сторон                       : 16:9
Частота кадров                           : 50,000 кадров/сек
Цветовое пространство                    : YUV
Субдискретизация насыщенности            : 4:2:0
Битовая глубина                          : 8 бит
Тип развёртки                            : Прогрессивная
Бит/(Пиксели*Кадры)                      : 0.279
Размер потока                            : 9,32 Гбайт (85%)
Аудио #1
Идентификатор                            : 5112 (0x13F8)
Идентификатор меню                       : 10302 (0x283E)
Формат                                   : AC-3
Формат/Информация                        : Audio Coding 3
Расширение режима                        : CM (complete main)
Параметр Endianness формата              : Big
Идентификатор кодека                     : 6
Продолжительность                        : 1 ч. 43 м.
Вид битрейта                             : Постоянный
Битрейт                                  : 448 Кбит/сек
Каналы                                   : 6 каналов
Расположение каналов                     : Front: L C R, Side: L R, LFE
Частота                                  : 48,0 КГц
Частота кадров                           : 31,250 кадров/сек (1536 spf)
Метод сжатия                             : С потерями
Размер потока                            : 332 Мбайт (3%)
Язык                                     : Несколько языков
Аудио #2
Идентификатор                            : 5113 (0x13F9)
Идентификатор меню                       : 10302 (0x283E)
Формат                                   : MPEG Audio
Версия формата                           : Version 1
Профиль формата                          : Layer 2
Идентификатор кодека                     : 3
Продолжительность                        : 1 ч. 43 м.
Вид битрейта                             : Постоянный
Битрейт                                  : 192 Кбит/сек
Каналы                                   : 2 канала
Частота                                  : 48,0 КГц
Метод сжатия                             : С потерями
Размер потока                            : 142 Мбайт (1%)
Язык                                     : German
Аудио #3
Идентификатор                            : 5114 (0x13FA)
Идентификатор меню                       : 10302 (0x283E)
Формат                                   : MPEG Audio
Версия формата                           : Version 1
Профиль формата                          : Layer 2
Идентификатор кодека                     : 3
Продолжительность                        : 1 ч. 43 м.
Вид битрейта                             : Постоянный
Битрейт                                  : 192 Кбит/сек
Каналы                                   : 2 канала
Частота                                  : 48,0 КГц
Метод сжатия                             : С потерями
Размер потока                            : 142 Мбайт (1%)
Язык                                     : French
Аудио #4
Идентификатор                            : 5115 (0x13FB)
Идентификатор меню                       : 10302 (0x283E)
Формат                                   : AC-3
Формат/Информация                        : Audio Coding 3
Расширение режима                        : CM (complete main)
Параметр Endianness формата              : Big
Идентификатор кодека                     : 6
Продолжительность                        : 1 ч. 43 м.
Вид битрейта                             : Постоянный
Битрейт                                  : 448 Кбит/сек
Каналы                                   : 2 канала
Расположение каналов                     : Front: L R
Частота                                  : 48,0 КГц
Частота кадров                           : 31,250 кадров/сек (1536 spf)
Метод сжатия                             : С потерями
Размер потока                            : 332 Мбайт (3%)
Язык                                     : English
Аудио #5
Идентификатор                            : 5116 (0x13FC)
Идентификатор меню                       : 10302 (0x283E)
Формат                                   : MPEG Audio
Версия формата                           : Version 1
Профиль формата                          : Layer 2
Идентификатор кодека                     : 3
Продолжительность                        : 1 ч. 43 м.
Вид битрейта                             : Постоянный
Битрейт                                  : 192 Кбит/сек
Каналы                                   : 2 канала
Частота                                  : 48,0 КГц
Метод сжатия                             : С потерями
Размер потока                            : 142 Мбайт (1%)
Текст
Идентификатор                            : 5117 (0x13FD)-100
Идентификатор меню                       : 10302 (0x283E)
Формат                                   : Teletext
Язык                                     : German
Скриншоты:

Дополнительные скриншоты:

[Цитировать]



Показать сообщения:    

Текущее время: 10-Дек 21:33

Часовой пояс: UTC + 3


Вы не можете начинать темы
Вы не можете отвечать на сообщения
Вы не можете редактировать свои сообщения
Вы не можете удалять свои сообщения
Вы не можете голосовать в опросах
Вы не можете прикреплять файлы к сообщениям
Вы не можете скачивать файлы

!ВНИМАНИЕ!
Сайт не предоставляет электронные версии произведений, а занимается лишь коллекционированием и каталогизацией ссылок, присылаемых и публикуемых на форуме нашими читателями. Если вы являетесь правообладателем какого-либо представленного материала и не желаете, чтобы ссылка на него находилась в нашем каталоге, свяжитесь с нами, и мы незамедлительно удалим ее. Файлы для обмена на трекере предоставлены пользователями сайта, и администрация не несет ответственности за их содержание. Просьба не заливать файлы, защищенные авторскими правами, а также файлы нелегального содержания!