[ Сегодня идет свободное скачивание без начисления Download ]


Статистика раздачи
Скачал: [ 2 ]
 
   
 
Top  
 
 
Душа шпиона (2015) HDTV 1080i-LQ - Производство: Россия
Жанр: Драма, Детектив
Режиссер: Владимир Бортко
Актеры: Андрей Чернышов, Пенни Джудд, Гленн Уэбстер, Ханна Блэмайерс, Крис Коулин, Фёдор Бондарчук, Марина Александрова, Малкольм МакДауэлл, Даниил Спиваковский, Кристина Бродская
Описание:
Перед российским разведчиком в Англии Алексом Уилки стоит задача проникнуть в американскую разведку и выявить крота - нашего сотрудника, передающего врагу агентурные сведения. Герой вынужден преодолевать невероятные препятствия, чтобы войти в доверие к американцам...

Возраст: 16+ (зрителям, достигшим 16 лет)
Дата мировой премьеры: 28 августа 2015
Дата премьеры в РФ: 8 октября 2015, «Ленфильм»

Продолжительность: 01:44:54
Качество видео: HDTV СЭМПЛ
Перевод: Не требуется
Субтитры: Отсутствуют
Видео: AVC, 1920x1080 (16:9), 25.000 fps, 7 866 Kbps (0.152 bit/pixel)
Аудио: MP2, 48.0 KHz, 2 ch, 192 Kbps, CBR

Mediainfo:

Формат                                   : MPEG-TS
Размер файла                             : 6,21 Гбайт
Продолжительность                        : 1 ч. 44 м.
Режим общего битрейта                    : Переменный
Общий поток                              : 8479 Кбит/сек
Видео
Идентификатор                            : 2911 (0xB5F)
Идентификатор меню                       : 1080 (0x438)
Формат                                   : AVC
Формат/Информация                        : Advanced Video Codec
Профиль формата                          : High@L4
Параметр CABAC формата                   : Да
Параметр ReFrames формата                : 4 кадра
Идентификатор кодека                     : 27
Продолжительность                        : 1 ч. 44 м.
Битрейт                                  : 7866 Кбит/сек
Ширина                                   : 1920 пикселей
Высота                                   : 1080 пикселей
Соотношение сторон                       : 16:9
Частота кадров                           : 25,000 кадров/сек
Цветовое пространство                    : YUV
Субдискретизация насыщенности            : 4:2:0
Битовая глубина                          : 8 бит
Тип развёртки                            : MBAFF
Порядок развёртки                        : Верхнее поле первое
Бит/(Пиксели*Кадры)                      : 0.152
Размер потока                            : 5,76 Гбайт (93%)
Аудио
Идентификатор                            : 2912 (0xB60)
Идентификатор меню                       : 1080 (0x438)
Формат                                   : MPEG Audio
Версия формата                           : Version 1
Профиль формата                          : Layer 2
Идентификатор кодека                     : 3
Продолжительность                        : 1 ч. 44 м.
Вид битрейта                             : Постоянный
Битрейт                                  : 192 Кбит/сек
Каналы                                   : 2 канала
Частота                                  : 48,0 КГц
Метод сжатия                             : С потерями
Размер потока                            : 144 Мбайт (2%)
Язык                                     : Russian
Скриншоты:

[Цитировать]



Показать сообщения:    

Текущее время: 07-Дек 19:26

Часовой пояс: UTC + 3


Вы не можете начинать темы
Вы не можете отвечать на сообщения
Вы не можете редактировать свои сообщения
Вы не можете удалять свои сообщения
Вы не можете голосовать в опросах
Вы не можете прикреплять файлы к сообщениям
Вы не можете скачивать файлы

!ВНИМАНИЕ!
Сайт не предоставляет электронные версии произведений, а занимается лишь коллекционированием и каталогизацией ссылок, присылаемых и публикуемых на форуме нашими читателями. Если вы являетесь правообладателем какого-либо представленного материала и не желаете, чтобы ссылка на него находилась в нашем каталоге, свяжитесь с нами, и мы незамедлительно удалим ее. Файлы для обмена на трекере предоставлены пользователями сайта, и администрация не несет ответственности за их содержание. Просьба не заливать файлы, защищенные авторскими правами, а также файлы нелегального содержания!