[ Сегодня идет свободное скачивание без начисления Download ]


Статистика раздачи
Нет
 
   
 
Top  
 
 
Парадокс / Paradox Информация о фильме
Название: Парадокс
Оригинальное название: Paradox
Год выхода: 2016
Жанр: боевик, драма
Режиссер: Майкл Херст
В ролях: Зои Белл, Мэлик Йоба, Адам Хасс, Бьорн Алекс Олсен, Брайан Флаккус, Майкл Аарон Миллиган, Стив Су, Даррен Бэйли, Джонатан Кэмп, Кортни Комптон
Слоган: «Ваше время истекло»
О фильме: Группа ученых работает над секретным проектом, который может позволить им путешествовать в будущее на небольшой отрезок времени. Для эксперимента они посылают одного из них ровно на час вперед. По возвращении тот умоляет, чтобы его заперли, потому что в течении этого часа их всех ждет смерть.

Страна: США / Benattar/Thomas Productions, Paradox Film Productions, Parkside Pictures, Tadross Media Group
Продолжительность: 01:29:50
Перевод: Любительский (двухголосый) [RecentFilms]
Файл
Качество: WEB-DLRip-AVC
Формат: MKV
Видео: AVC, 2500 Kb/s, 1024x576
Звук: Russian: AC3, 192 Kb/s (2 ch), English: AC3, 448 Kb/s (6 ch)
Субтитры: English
Дополнительно: Сохранены оригинальные главы

MediaInfo:

General
Unique ID : 205983642281929692159745760083989594292 (0x9AF701A82E0E558496A6B325867980B4)
Complete name : H:ДИСК1.ФИЛЬМЫПарадокс Paradox (2016)Paradox.2016.L2.WEB-DLRip-AVC.mkv
Format : Matroska
Format version : Version 4 / Version 2
File size : 1.97 GiB
Duration : 1h 29mn
Overall bit rate : 3 140 Kbps
Movie name : Release by basma4i
Encoded date : UTC 2016-06-21 15:39:03
Writing application : mkvmerge v8.2.0 ('World of Adventure') 64bit
Writing library : Lavf57.25.100
ENCODING_INFO : MATROSKA,WEBM > MKV / H264 > X264 VBR-2P 2500kbps Произвольный / AC3 > AC3 CBR 192kbps / AC3 > AC3 CBR 480kbps
DURATION : 01:26:13.970000000
NUMBER_OF_FRAMES : 1072
NUMBER_OF_BYTES : 36763
_STATISTICS_WRITING_APP : mkvmerge v8.2.0 ('World of Adventure') 64bit
_STATISTICS_WRITING_DATE_UTC : 2016-06-21 15:39:03
_STATISTICS_TAGS : BPS DURATION NUMBER_OF_FRAMES NUMBER_OF_BYTES
Video
ID : 1
Format : AVC
Format/Info : Advanced Video Codec
Format profile : [email protected]
Format settings, CABAC : Yes
Format settings, ReFrames : 11 frames
Codec ID : V_MPEG4/ISO/AVC
Bit rate : 2 500 Kbps
Width : 1 024 pixels
Height : 576 pixels
Display aspect ratio : 16:9
Frame rate mode : Variable
Original frame rate : 23.976 fps
Color space : YUV
Chroma subsampling : 4:2:0
Bit depth : 8 bits
Scan type : Progressive
Bits/(Pixel*Frame) : 0.177
Writing library : x264 core 148 r2705M 3f5ed56
Encoding settings : cabac=1 / ref=11 / deblock=1:-3:-3 / analyse=0x3:0x133 / me=umh / subme=11 / psy=1 / psy_rd=1.00:0.20 / mixed_ref=1 / me_range=32 / chroma_me=1 / trellis=2 / 8x8dct=1 / cqm=0 / deadzone=21,11 / fast_pskip=1 / chroma_qp_offset=-3 / threads=12 / lookahead_threads=2 / sliced_threads=0 / nr=0 / decimate=1 / interlaced=0 / bluray_compat=0 / constrained_intra=0 / bframes=8 / b_pyramid=2 / b_adapt=2 / b_bias=0 / direct=3 / weightb=1 / open_gop=0 / weightp=2 / keyint=230 / keyint_min=23 / scenecut=40 / intra_refresh=0 / rc_lookahead=40 / rc=2pass / mbtree=1 / bitrate=2500 / ratetol=1.0 / qcomp=0.60 / qpmin=0 / qpmax=69 / qpstep=4 / cplxblur=20.0 / qblur=0.5 / ip_ratio=1.40 / aq=1:1.00
Language : English
Default : Yes
Forced : No
Color range : Limited
Color primaries : BT.709
Transfer characteristics : BT.709
Matrix coefficients : BT.709
DURATION : 01:29:50.807000000
NUMBER_OF_FRAMES : 129250
NUMBER_OF_BYTES : 1683231532
_STATISTICS_WRITING_APP : mkvmerge v8.2.0 ('World of Adventure') 64bit
_STATISTICS_WRITING_DATE_UTC : 2016-06-21 15:39:03
_STATISTICS_TAGS : BPS DURATION NUMBER_OF_FRAMES NUMBER_OF_BYTES
Audio #1
ID : 2
Format : AC-3
Format/Info : Audio Coding 3
Mode extension : CM (complete main)
Format settings, Endianness : Big
Codec ID : A_AC3
Duration : 1h 29mn
Bit rate mode : Constant
Bit rate : 192 Kbps
Channel(s) : 2 channels
Channel positions : Front: L R
Sampling rate : 48.0 KHz
Compression mode : Lossy
Stream size : 123 MiB (6%)
Language : Russian
Default : Yes
Forced : No
DURATION : 01:29:50.752000000
NUMBER_OF_FRAMES : 168461
NUMBER_OF_BYTES : 129378048
_STATISTICS_WRITING_APP : mkvmerge v8.2.0 ('World of Adventure') 64bit
_STATISTICS_WRITING_DATE_UTC : 2016-06-21 15:39:03
_STATISTICS_TAGS : BPS DURATION NUMBER_OF_FRAMES NUMBER_OF_BYTES
Audio #2
ID : 3
Format : AC-3
Format/Info : Audio Coding 3
Mode extension : CM (complete main)
Format settings, Endianness : Big
Codec ID : A_AC3
Duration : 1h 29mn
Bit rate mode : Constant
Bit rate : 448 Kbps
Channel(s) : 6 channels
Channel positions : Front: L C R, Side: L R, LFE
Sampling rate : 48.0 KHz
Compression mode : Lossy
Stream size : 288 MiB (14%)
Language : English
Default : No
Forced : No
DURATION : 01:29:50.784000000
NUMBER_OF_FRAMES : 168462
NUMBER_OF_BYTES : 301883904
_STATISTICS_WRITING_APP : mkvmerge v8.2.0 ('World of Adventure') 64bit
_STATISTICS_WRITING_DATE_UTC : 2016-06-21 15:39:03
_STATISTICS_TAGS : BPS DURATION NUMBER_OF_FRAMES NUMBER_OF_BYTES
Text
ID : 4
Format : UTF-8
Codec ID : S_TEXT/UTF8
Codec ID/Info : UTF-8 Plain Text
Language : English
Default : Yes
Forced : No
Menu
00:00:00.000 : :Opening Sequence
00:06:06.000 : :Trouble In Paradise
00:11:40.000 : :Do Your Best Work
00:18:20.000 : :Not Where, But When
00:23:34.000 : :Bad News
00:29:09.000 : :One Of Us
00:35:01.000 : :Never Considered The 'Should'
00:40:39.000 : :He Was Smelling Himself
00:46:25.000 : :Your Cover's Blown
00:53:21.000 : :We Can't Change Anything
00:58:51.000 : :Max Devlin
01:04:34.000 : :Press The Red Button
01:10:21.000 : :You're Him
01:17:06.000 : :Can't Cause A Paradox
01:21:49.000 : :You Can't Escape Fate
01:27:56.000 : :End Credits

Скриншоты

[Цитировать]



Показать сообщения:    

Текущее время: 06-Дек 08:52

Часовой пояс: UTC + 3


Вы не можете начинать темы
Вы не можете отвечать на сообщения
Вы не можете редактировать свои сообщения
Вы не можете удалять свои сообщения
Вы не можете голосовать в опросах
Вы не можете прикреплять файлы к сообщениям
Вы не можете скачивать файлы

!ВНИМАНИЕ!
Сайт не предоставляет электронные версии произведений, а занимается лишь коллекционированием и каталогизацией ссылок, присылаемых и публикуемых на форуме нашими читателями. Если вы являетесь правообладателем какого-либо представленного материала и не желаете, чтобы ссылка на него находилась в нашем каталоге, свяжитесь с нами, и мы незамедлительно удалим ее. Файлы для обмена на трекере предоставлены пользователями сайта, и администрация не несет ответственности за их содержание. Просьба не заливать файлы, защищенные авторскими правами, а также файлы нелегального содержания!